DeNunCianDo  
Denunciando   Video Porno luly bossa Completo   Video Porno Sandra Muños Completo   Alejandra Omaña Primer video porno   Lina Arroyave, DESNUDA, la mama del hijo de Kevin Roldan   

Retroceder   DeNunCianDo » ..:::: CoMuNiDaD DeNunCianDo.CoM ::::.. » Zona HOT, Solo Para Adultos » Peliculas

Peliculas Zona dedicada a peliculas XXX (cine adulto) ya sean completas o fragmentos, las cuales sean profesionales y realizadas por estudios dedicados a dicha actividad. (Bangbros, Pornpros, etc)

Hola Invitado!
Tómate un minuto para registrarte, es 100% GRATIS y no verás ninguna publicidad! ¿Qué estás esperando?
tapatalk Para Ingresa a Denunciando.com por medio de TapaTalk Clic ACA
Registrarse Ahora
Peliculas »

Public Agent - Angelina

Participa en el tema Public Agent - Angelina en el foro Peliculas.
Public Agent - Angelina General Format : MPEG-4 Format profile : Base Media Codec ID : isom File size : ....



Temas Similares
Tema Autor Foro Respuestas Último mensaje
Public Disgrace is hardcore public sex with women fucked and used in extreme gangbangs sex in public Polerazvep7 Videos 2 17-03-2018 01:29:55
Public-agent, videos de entrevistas en la calle (regular update) tras-06 Peliculas 20 13-01-2013 01:20:54
Public Agent - Kattie sunstorm Peliculas 0 24-11-2012 20:31:10
Cumlouder -- Eva Angelina - Eva Angelina y sus gafas -- HD 720p - Mamadas en la calle - 21/05/2012 BittMan Peliculas 0 21-05-2012 10:31:55
Public Disgrace - Girls Punished and Humiliated in public bondage. Ssennderr Peliculas 0 23-10-2011 08:53:57

 
Antiguo , 09:38:56   #1

Me Gusta
Estadisticas
Mensajes: 362
Me Gusta Recibidos: 5
Me Gustas Dados: 0
Ingreso: 04 jun 2012

Temas Nominados a TDM
Temas Nominados Temas Nominados 0
Nominated Temas Ganadores: 0
Reputacion Poder de Credibilidad: 0
Puntos: 87
vargamester el Usuariox va por buen camino
  
Predeterminado Public Agent - Angelina Calificación: de 5,00

Public Agent - Angelina





General
Format : MPEG-4
Format profile : Base Media
Codec ID : isom
File size : 581 MiB
Duration : 27mn 24s
Overall bit rate : 2 966 Kbps

Video
ID : 1
Format : AVC
Format/Info : Advanced Video Codec
Format profile : High@L3.0
Format settings, CABAC : Yes
Format settings, ReFrames : 4 frames
Codec ID : avc1
Codec ID/Info : Advanced Video Coding
Duration : 27mn 24s
Bit rate : 2 700 Kbps
Width : 852 pixels
Height : 480 pixels
Display aspect ratio : 16:9
Frame rate mode : Constant
Frame rate : 24.000 fps
Color space : YUV
Chroma subsampling : 4:2:0
Bit depth : 8 bits
Scan type : Progressive
Bits/(Pixel*Frame) : 0.275
Stream size : 530 MiB (91%)

Audio
ID : 2
Format : AAC
Format/Info : Advanced Audio Codec
Format profile : LC
Codec ID : 40
Duration : 27mn 24s
Bit rate mode : Constant
Bit rate : 128 Kbps
Channel(s) : 2 channels
Channel positions : Front: L R
Sampling rate : 44.1 KHz
Compression mode : Lossy
Stream size : 25.1 MiB (4%)
Language : English

[code]http://www.secureupload.eu/c6baipcuizfw/angelina.mp4[/code]

Comentarios Facebook

vargamester no está en línea  

compartir
                 
remocion sep Gold sep Silver sep Donar

marcaNo Calculado   #1.5
SponSor

avatar
 
Me Gusta denunciando
Estadisticas
Mensajes: 898.814
Me Gusta Recibidos: 75415
Me Gustado Dados: 62988
Fecha de Ingreso: 02 jun 2006
Reputacion
Puntos: 1574370
Ayudante de Santa está en el buen caminoAyudante de Santa está en el buen caminoAyudante de Santa está en el buen caminoAyudante de Santa está en el buen caminoAyudante de Santa está en el buen caminoAyudante de Santa está en el buen caminoAyudante de Santa está en el buen caminoAyudante de Santa está en el buen caminoAyudante de Santa está en el buen caminoAyudante de Santa está en el buen caminoAyudante de Santa está en el buen caminoAyudante de Santa está en el buen caminoAyudante de Santa está en el buen caminoAyudante de Santa está en el buen camino
emoticon Re: Public Agent - Angelina

 
 
   
   
_______________________________________________
Publicidad :)
conectado
 

Etiquetas
581 mb - mp4 - su

Herramientas



La franja horaria es GMT -5. Ahora son las 14:13:46.
Desarrollado por: vBulletin® Versión 3.8.9
Derechos de Autor ©2000 - 2018, Jelsoft Enterprises Ltd.
DeNunCianDo.CoM ©
DeNunCianDo


Page generated in 0,07831 seconds with 14 queries

SEO by vBSEO