DeNunCianDo  
Denunciando   Video Porno luly bossa Completo   Video Porno Sandra Muños Completo   Alejandra Omaña Primer video porno   Lina Arroyave, DESNUDA, la mama del hijo de Kevin Roldan   

Retroceder   DeNunCianDo » ..:::: CoMuNiDaD DeNunCianDo.CoM ::::.. » Discusiones Generales » Peliculas, Cine y Teatro » Descargas

Descargas Zona dedicada a todo lo relacionado con descargas de películas en general. Acá podrás encontrar descargas directas y demás.

Hola Invitado!
Tómate un minuto para registrarte, es 100% GRATIS y no verás ninguna publicidad! ¿Qué estás esperando?
tapatalk Para Ingresa a Denunciando.com por medio de TapaTalk Clic ACA
Registrarse Ahora
Descargas »

Protegiendo al Enemigo [DvdRip-XviD] [Español Latino] [LB]

Participa en el tema Protegiendo al Enemigo [DvdRip-XviD] [Español Latino] [LB] en el foro Descargas.
....



Temas Similares
Tema Autor Foro Respuestas Último mensaje
Protegiendo al Enemigo (2012) DVDRip bad boy alan Descargas 0 03-06-2012 19:27:39
Protegiendo al Enemigo DVDRip 2012 Español Latino akuma1983 Descargas 1 01-06-2012 00:16:17
Protegiendo al Enemigo (2012) DVDRip Español Latino juanchw Descargas 0 30-05-2012 14:52:02
Protegiendo al Enemigo (2012) DVDRip Latino [Accion] lombervid Descargas 1 27-05-2012 17:55:30
Protegiendo al Enemigo 2012 - Dvdrip - Latino - Mediafire - Con la actuacion de Ruben Blades - Recom Viccenzo Descargas 0 24-05-2012 14:33:41

 
Antiguo , 20:47:33   #1

Me Gusta
Estadisticas
Mensajes: 17
Me Gusta Recibidos: 0
Me Gustas Dados: 0
Ingreso: 01 jun 2012

Temas Nominados a TDM
Temas Nominados Temas Nominados 0
Nominated Temas Ganadores: 0
Reputacion Poder de Credibilidad: 0
Puntos: 10
juanforever24 el Usuariox esta entre el bien y el mal
  
Wave Protegiendo al Enemigo [DvdRip-XviD] [Español Latino] [LB] Calificación: de 5,00

Tobin Frost es un exoficial de inteligencia que renunció a la CIA y que se dedica a vender información confidencial a quien le pague por ella. Por su parte, Matt Weston es un agente de la CIA que espera con ansia la oportunidad de demostrar su valor, pero vive frustrado por llevar un año en Sudáfrica sin la oportunidad correcta. Cuando Frost es detenido para ser interrogado en una casa de seguridad sudafricana, ésta es atacada por mercenarios. Frost y Weston deben escapar juntos y averiguar, a pesar de ser enemigos, quién o quiénes están tratando de matarlos.
TÍTULO ORIGINAL: Safe House
OTROS TÍTULOS: El invitado / Protegiendo al Enemigo
AÑO: 2012
DURACIÓN: 115 min.
PAÍS: USA
DIRECTOR: Daniel Espinosa
GUIÓN: David Guggenheim
MÚSICA: Ramin Djawadi
FOTOGRAFÍA: Oliver Wood
REPARTO: Denzel Washington, Ryan Reynolds, Vera Farmiga, Brendan Gleeson, Sam Shepard, Rubén Blades, Nora Arnezeder, Robert Patrick, Liam Cunningham, Joel Kinnaman, Fares Fares, Fana Mokoena
PRODUCTORA: Intrepid Pictures / Stuber Productions
GÉNERO: Acción. Thriller
DVDRip | XviD | 702 MB | Español Latino | Acción | 2012
Video
ID : 0
Format : MPEG-4 Visual
Format profile : Advanced Simple@L5
Format settings, BVOP : 2
Format settings, QPel : No
Format settings, GMC : No warppoints
Format settings, Matrix : Default (H.263)
Codec ID : XVID
Codec ID/Hint : XviD
Duration : 1h 54mn
Bit rate : 717 Kbps
Width : 640 pixels
Height : 256 pixels
Display aspect ratio : 2.500
Frame rate : 23.976 fps
Color space : YUV
Chroma subsampling : 4:2:0
Bit depth : 8 bits
Scan type : Progressive
Compression mode : Lossy
Bits/(Pixel*Frame) : 0.183
Stream size : 590 MiB (84%)
Writing library : XviD 1.2.1 (UTC 2008-12-04)
Audio
ID : 1
Format : MPEG Audio
Format version : Version 1
Format profile : Layer 3
Mode : Joint stereo
Codec ID : 55
Codec ID/Hint : MP3
Duration : 1h 54mn
Bit rate mode : Constant
Bit rate : 128 Kbps
Channel(s) : 2 channels
Sampling rate : 48.0 KHz
Compression mode : Lossy
Stream size : 105 MiB (15%)
Alignment : Aligned on interleaves
Interleave, duration : 42 ms (1.00 video frame)
Interleave, preload duration : 504 ms
Writing library : LAME3.99r
Encoding settings : -m j -V 4 -q 2 -lowpass 17 -b 128






[CODE]http://letitbit.net/download/34061.340a9187ea49d35051c4232e1f33/Safe.House.DVDRip_Michel_Vai.juanforever24..rar.html[/CODE]




Comentarios Facebook

juanforever24 no está en línea  

compartir
                 
remocion sep Gold sep Silver sep Donar

marcaNo Calculado   #1.5
SponSor

avatar
 
Me Gusta denunciando
Estadisticas
Mensajes: 898.814
Me Gusta Recibidos: 75415
Me Gustado Dados: 62988
Fecha de Ingreso: 02 jun 2006
Reputacion
Puntos: 1574370
Ayudante de Santa está en el buen caminoAyudante de Santa está en el buen caminoAyudante de Santa está en el buen caminoAyudante de Santa está en el buen caminoAyudante de Santa está en el buen caminoAyudante de Santa está en el buen caminoAyudante de Santa está en el buen caminoAyudante de Santa está en el buen caminoAyudante de Santa está en el buen caminoAyudante de Santa está en el buen caminoAyudante de Santa está en el buen caminoAyudante de Santa está en el buen caminoAyudante de Santa está en el buen caminoAyudante de Santa está en el buen camino
emoticon Re: Protegiendo al Enemigo [DvdRip-XviD] [Español Latino] [LB]

 
 
   
   
_______________________________________________
Publicidad :)
conectado
 

Etiquetas
dvdripxvid, enemigo, español, latino, protegiendo

Herramientas



La franja horaria es GMT -5. Ahora son las 02:34:40.
Desarrollado por: vBulletin® Versión 3.8.9
Derechos de Autor ©2000 - 2018, Jelsoft Enterprises Ltd.
DeNunCianDo.CoM ©
DeNunCianDo


Page generated in 0,05082 seconds with 14 queries

SEO by vBSEO