DeNunCianDo  
Denunciando   Urbantuning   Futbol Es Pasion   Video Porno luly bossa Completo   Video Porno Sandra Muños Completo   Alejandra Omaña Primer video porno   Lina Arroyave, DESNUDA, la mama del hijo de Kevin Roldan   

Retroceder   DeNunCianDo » ..:::: CoMuNiDaD DeNunCianDo.CoM ::::.. » Discusiones Generales » Peliculas, Cine y Teatro » Descargas

Descargas Zona dedicada a todo lo relacionado con descargas de películas en general. Acá podrás encontrar descargas directas y demás.

Hola Invitado!
Tómate un minuto para registrarte, es 100% GRATIS y no verás ninguna publicidad! ¿Qué estás esperando?
tapatalk Para Ingresa a Denunciando.com por medio de TapaTalk Clic ACA
Registrarse Ahora
Descargas »

Cena de amigos [DVDRip][Castellano-AC3-5.1][Comedia][2009] En DVD: 30/11/2011

Participa en el tema Cena de amigos [DVDRip][Castellano-AC3-5.1][Comedia][2009] En DVD: 30/11/2011 en el foro Descargas.
....



Temas Similares
Tema Autor Foro Respuestas Último mensaje
Amigos 2011 [Ts.hq-Castellano][Comedia][WU-UP-US] theuploaded Descargas 0 02-08-2011 00:06:25
Amigos... (2011) [Comedia] [TS-Screener HQ] [Castellano] petardico Descargas 0 31-07-2011 22:24:28
Cena de amigos [Castellano][BrScreener][Comedia][Estreno 2011] ErLuiSS Descargas 0 03-07-2011 11:01:24
Cena de amigos (2011)[BR-Screener][Castellano-MIC-HQ][Comedia][FS-US-FLS-WU-UP] explo1515 Descargas 1 02-07-2011 23:08:40
Cena de amigos (2009) [Comedia] [DVDScreener] [Castellano] petardico Descargas 0 30-06-2011 22:37:04

 
Antiguo , 17:19:55   #1

Me Gusta
Estadisticas
Mensajes: 6
Me Gusta Recibidos: 0
Me Gustas Dados: 0
Ingreso: 15 nov 2011

Temas Nominados a TDM
Temas Nominados Temas Nominados 0
Nominated Temas Ganadores: 0
Reputacion Poder de Credibilidad: 0
Puntos: 10
bolivarbuxv1 el Usuariox esta entre el bien y el mal
  
Predeterminado Cena de amigos [DVDRip][Castellano-AC3-5.1][Comedia][2009] En DVD: 30/11/2011 Calificación: de 5,00







Comedia | 100 min. | Web oficial | En cines

Título: Cena de amigos
Título original: Le Code a changé
País: Francia
Estreno en USA:
Estreno en España: 01/07/2011
Lanzamiento en DVD (alquiler): 30/11/2011
Productora: StudioCanal, TF1 Films Production, Radis Films Production
Director: Danièle Thompson
Guión: Danièle Thompson, Christopher Thompson
Reparto: Karin Viard, Dany Boon, Emmanuelle Seigner, Blanca Li, Marina Fois, Patrick Bruel, Christopher Thompson, Marina Hands, Patrick Chesnais, Laurent Stocker, Pierre Arditi, Jeanne Raimbault, Isabelle Cagnat, Marc Rioufol




Las cenas de amigos son la dictadura de las apariencias: te arreglas, te ríes, cuentas historias, te haces el interesante, compartes recuerdos y planes... La ansiedad se oculta tras el humor, y el dolor es sofocado por las carcajadas. Y, durante unas cuantas horas, ¡todos se lo creen! Y eso es lo que importa.
Si manejas los códigos y muestras el respecto oportuno a los demás invitados, cordialidad, hipocresía y buen ánimo, lo más probable es que tengas una velada agradable... Pero las máscaras van cayendo de camino a casa.

Notas de producción:
Con más de 500 copias en su estreno, 'Cena de amigos' se convirtió en un fenómeno en Francia, donde fue número uno de la taquilla, con cerca de 2 millones de espectadores y con una recaudación de más de 10 millones de euros.




General
Complete name : files/cenara.avi
Format : AVI
Format/Info : Audio Video Interleave
Format profile : OpenDML
File size : 1.06 GiB
Duration : 1h 35mn
Overall bit rate : 1 578 Kbps
Writing application : Lavf52.78.4

Video
ID : 0
Format : MPEG-4 Visual
Format profile : Advanced Simple@L5
Format settings, BVOP : Yes
Format settings, QPel : No
Format settings, GMC : No warppoints
Format settings, Matrix : Default (H.263)
Muxing mode : Packed bitstream
Codec ID : DX50
Codec ID/Hint : DivX 5
Duration : 1h 35mn
Bit rate : 115 Kbps
Width : 720 pixels
Height : 310 pixels
Display aspect ratio : 2.35:1
Frame rate : 25.000 fps
Color space : YUV
Chroma subsampling : 4:2:0
Bit depth : 8 bits
Scan type : Progressive
Compression mode : Lossy
Bits/(Pixel*Frame) : 0.021
Stream size : 78.9 MiB (7%)
Writing library : XviD 1.2.1 (UTC 2008-12-04)

Audio
ID : 1
Format : AC-3
Format/Info : Audio Coding 3
Mode extension : CM (complete main)
Codec ID : 2000
Duration : 1h 35mn
Bit rate mode : Constant
Bit rate : 448 Kbps
Channel(s) : 6 channels
Channel positions : Front: L C R, Side: L R, LFE
Sampling rate : 48.0 KHz
Bit depth : 16 bits
Compression mode : Lossy
Stream size : 14.3 MiB (1%)
Alignment : Aligned on interleaves
Interleave, duration : 71 ms (1.78 video frames)










LINKS INTERCAMBIABLES




[code]http://www.fileserve.com/file/V7AFP7P
http://www.fileserve.com/file/kj8PcuW
http://www.fileserve.com/file/KmPH9ZC[/code]



[code] http://www.uploadstation.com/file/ZeC5ph4
http://www.uploadstation.com/file/XJgGnE7
http://www.uploadstation.com/file/YTq5vPV[/code]



[code]http://www.filejungle.com/f/9CHwGB
http://www.filejungle.com/f/dGCsjE
http://www.filejungle.com/f/bdT44t[/code]





Comentarios Facebook

bolivarbuxv1 no está en línea  

compartir
                 
remocion sep Gold sep Silver sep Donar

marcaNo Calculado   #1.5
SponSor

avatar
 
Me Gusta denunciando
Estadisticas
Mensajes: 898.814
Me Gusta Recibidos: 75415
Me Gustado Dados: 62988
Fecha de Ingreso: 02 jun 2006
Reputacion
Puntos: 1574370
Ayudante de Santa está en el buen caminoAyudante de Santa está en el buen caminoAyudante de Santa está en el buen caminoAyudante de Santa está en el buen caminoAyudante de Santa está en el buen caminoAyudante de Santa está en el buen caminoAyudante de Santa está en el buen caminoAyudante de Santa está en el buen caminoAyudante de Santa está en el buen caminoAyudante de Santa está en el buen caminoAyudante de Santa está en el buen caminoAyudante de Santa está en el buen caminoAyudante de Santa está en el buen caminoAyudante de Santa está en el buen camino
emoticon Re: Cena de amigos [DVDRip][Castellano-AC3-5.1][Comedia][2009] En DVD: 30/11/2011

 
 
   
   
_______________________________________________
Publicidad :)
conectado
 

Etiquetas
amigos, cena, dvd, dvdripcastellanoaccomedia2009

Herramientas



La franja horaria es GMT -5. Ahora son las 21:15:19.
Desarrollado por: vBulletin® Versión 3.8.9
Derechos de Autor ©2000 - 2018, Jelsoft Enterprises Ltd.
DeNunCianDo.CoM ©
DeNunCianDo


Page generated in 0,05546 seconds with 14 queries

SEO by vBSEO