DeNunCianDo  
Denunciando   Urbantuning   Futbol Es Pasion   Video Porno luly bossa Completo   Video Porno Sandra Muños Completo   Alejandra Omaña Primer video porno   Lina Arroyave, DESNUDA, la mama del hijo de Kevin Roldan   

Retroceder   DeNunCianDo » ..:::: CoMuNiDaD DeNunCianDo.CoM ::::.. » Discusiones Generales » Peliculas, Cine y Teatro » Descargas

Descargas Zona dedicada a todo lo relacionado con descargas de películas en general. Acá podrás encontrar descargas directas y demás.

Hola Invitado!
Tómate un minuto para registrarte, es 100% GRATIS y no verás ninguna publicidad! ¿Qué estás esperando?
tapatalk Para Ingresa a Denunciando.com por medio de TapaTalk Clic ACA
Registrarse Ahora
Descargas »

La Cosa (The Thing) [Dvdscreener PROper][Castellano SINCRO+Forzados][Ciencia ficción/Intriga]

Participa en el tema La Cosa (The Thing) [Dvdscreener PROper][Castellano SINCRO+Forzados][Ciencia ficción/Intriga] en el foro Descargas.
....



Temas Similares
Tema Autor Foro Respuestas Último mensaje
Linterna verde (2011) [Ciencia-ficcion] [DVDScreener] [Castellano] petardico Descargas 0 06-08-2011 22:51:17
Linterna verde (2011) [Ciencia-ficcion] [DVDScreener] [Castellano] petardico Descargas 0 28-07-2011 19:48:20
Código Fuente (2011) [Ciencia-ficción] [DVDScreener] [Castellano] petardico Descargas 0 15-04-2011 22:36:55
El Santuario (Sanctum) [2011] [DVDScreener PROPER][Castellano + Subs Forzados][Aventuras][2011][NL/F _Ripper_ Descargas 0 27-02-2011 00:50:40
Monsters (2010) [Ciencia-ficción] [DVDScreener] [Castellano] GaZepa Descargas 0 20-01-2011 23:16:11

 
Antiguo , 16:54:34   #1

Me Gusta
Estadisticas
Mensajes: 47
Me Gusta Recibidos: 0
Me Gustas Dados: 0
Ingreso: 26 nov 2011

Temas Nominados a TDM
Temas Nominados Temas Nominados 0
Nominated Temas Ganadores: 0
Reputacion Poder de Credibilidad: 0
Puntos: 16
magicbibi el Usuariox esta entre el bien y el mal
  
Shocked La Cosa (The Thing) [Dvdscreener PROper][Castellano SINCRO+Forzados][Ciencia ficción/Intriga] Calificación: de 5,00


La cosa (The Thing)






[CODE]TÍTULO ORIGINAL The Thing
AÑO 2011
DURACIÓN 103 min.
DIRECTOR Matthijs van Heijningen Jr.
GUIÓN Eric Heisserer, Ronald D. Moore (Historia corta: John W. Campbell Jr.)
MÚSICA Marco Beltrami
FOTOGRAFÍA Michel Abramowicz
REPARTO Mary Elizabeth Winstead, Eric Christian Olsen, Joel Edgerton, Ulrich Thomsen, Jonathan Walker, Dennis Storhøi, Kim Bubbs, Stig Henrik Hoff, Trond Espen Seim, Paul Braunstein, Jørgen Langhelle, Jan Gunnar Røise, Kristofer Hivju, Jo Adrian Haavind, Carsten Bjørnlund
PRODUCTORA Coproducción EEUU-Canadá; Strike Entertainment / Universal Pictures
WEB OFICIAL http://www.quieneslacosa.es/
GÉNERO Ciencia ficción. Terror. Intriga. Thriller | Precuela. Extraterrestres
2011: Festival de Toronto: Sección oficial largometrajes a concurso
GÉNERO Drama | Biográfico
[/CODE]

En una remota zona de la Antártida, un descubrimiento de gran relevancia científica se convierte en un problema de supervivencia. La paleontóloga Kate Lloyd (Mary Elizabeth Winstead) llega a esa inhóspita región para colaborar con un equipo científico noruego que ha encontrado una nave extraterrestre enterrada en el hielo, en cuyo interior hay un ser alienígena congelado pero cuyas células están vivas... Precuela de "La Cosa", película dirigida por John Carpenter y protagonizada por Kurt Russell, que se basaba en un clásico de serie B de los años 50.
[CODE]General
Complete name : /Cosa.DVDSCR.PROPER.Castellano.By.MagicBibi.avi
Format : AVI
Format/Info : Audio Video Interleave
File size : 1.11 GiB
Duration : 1h 38mn
Overall bit rate : 1 608 Kbps
Movie name : Cosa.DVDSCR.PROPER..:: LaChuky ::..
Writing application : VirtualDubMod 1.5.10.2 (build 2540/release)
Writing library : VirtualDubMod build 2540/release

Video
ID : 0
Format : MPEG-4 Visual
Format profile : Simple@L3
Format settings, BVOP : No
Format settings, QPel : No
Format settings, GMC : No warppoints
Format settings, Matrix : Default (H.263)
Codec ID : DX50
Codec ID/Hint : DivX 5
Duration : 1h 38mn
Bit rate : 1 342 Kbps
Width : 720 pixels
Height : 304 pixels
Display aspect ratio : 2.35:1
Frame rate : 25.000 fps
Color space : YUV
Chroma subsampling : 4:2:0
Bit depth : 8 bits
Scan type : Progressive
Compression mode : Lossy
Bits/(Pixel*Frame) : 0.245
Stream size : 949 MiB (83%)
Writing library : XviD 1.2.1 (UTC 2008-12-04)

Audio
ID : 1
Format : MPEG Audio
Format version : Version 1
Format profile : Layer 3
Codec ID : 55
Codec ID/Hint : MP3
Duration : 1h 38mn
Bit rate mode : Constant
Bit rate : 256 Kbps
Channel(s) : 2 channels
Sampling rate : 44.1 KHz
Compression mode : Lossy
Stream size : 181 MiB (16%)
Alignment : Split accross interleaves
Interleave, duration : 40 ms (1.00 video frame)
Interleave, preload duration : 500 ms
[/CODE]



[SPOILER]

[/SPOILER]




http://www.fileserve.com/file/sU9MvQz
http://www.fileserve.com/file/Y8zXd5V

http://www.filejungle.com/f/Z28XQk
http://www.filejungle.com/f/GsgqpX

http://filepost.com/files/9d4eb416/C....avi.part1.rar
http://filepost.com/files/c9eb43m8/C....avi.part2.rar

Post Creado con Magic Post Creator

Comentarios Facebook

magicbibi no está en línea  

compartir
                 
remocion sep Gold sep Silver sep Donar

marcaNo Calculado   #1.5
SponSor

avatar
 
Me Gusta denunciando
Estadisticas
Mensajes: 898.814
Me Gusta Recibidos: 75415
Me Gustado Dados: 62988
Fecha de Ingreso: 02 jun 2006
Reputacion
Puntos: 1574370
Ayudante de Santa está en el buen caminoAyudante de Santa está en el buen caminoAyudante de Santa está en el buen caminoAyudante de Santa está en el buen caminoAyudante de Santa está en el buen caminoAyudante de Santa está en el buen caminoAyudante de Santa está en el buen caminoAyudante de Santa está en el buen caminoAyudante de Santa está en el buen caminoAyudante de Santa está en el buen caminoAyudante de Santa está en el buen caminoAyudante de Santa está en el buen caminoAyudante de Santa está en el buen caminoAyudante de Santa está en el buen camino
emoticon Re: La Cosa (The Thing) [Dvdscreener PROper][Castellano SINCRO+Forzados][Ciencia ficción/Intriga]

 
 
   
   
_______________________________________________
Publicidad :)
conectado
 

Etiquetas
cosa, dvdscreener, ficcion or intriga, forzadosciencia, propercastellano, sincro, thing

Herramientas



La franja horaria es GMT -5. Ahora son las 23:54:36.
Desarrollado por: vBulletin® Versión 3.8.9
Derechos de Autor ©2000 - 2018, Jelsoft Enterprises Ltd.
DeNunCianDo.CoM ©
DeNunCianDo


Page generated in 0,06509 seconds with 14 queries

SEO by vBSEO