DeNunCianDo  
Denunciando   Urbantuning   Futbol Es Pasion   Video Porno luly bossa Completo   Video Porno Sandra Muños Completo   Alejandra Omaña Primer video porno   Lina Arroyave, DESNUDA, la mama del hijo de Kevin Roldan   

Retroceder   DeNunCianDo » ..:::: CoMuNiDaD DeNunCianDo.CoM ::::.. » Discusiones Generales » Peliculas, Cine y Teatro » Descargas

Descargas Zona dedicada a todo lo relacionado con descargas de películas en general. Acá podrás encontrar descargas directas y demás.

Hola Invitado!
Tómate un minuto para registrarte, es 100% GRATIS y no verás ninguna publicidad! ¿Qué estás esperando?
tapatalk Para Ingresa a Denunciando.com por medio de TapaTalk Clic ACA
Registrarse Ahora
Descargas »

Un Método Peligroso [2011][TS-Screener HQ Sin Subs Pegados][Castellano][Drama]

Participa en el tema Un Método Peligroso [2011][TS-Screener HQ Sin Subs Pegados][Castellano][Drama] en el foro Descargas.
....



Temas Similares
Tema Autor Foro Respuestas Último mensaje
Un método peligroso (2011)(TS scr HQ sin subs pegados)(cast. mic)(Drama) bolivarbuxv1 Descargas 0 28-11-2011 12:47:27
Un método peligroso [1LINK][TS screener][castellano mic][drama, biográfico][2011] magicbibi Descargas 0 28-11-2011 02:14:46
Nowhere Boy (2011)[BR-Screener][Castellano-MIC][Drama/Biográfico][FS-BS-US-FLS-FKS-UP] explo1515 Descargas 0 27-05-2011 18:12:36
Agua para elefantes (2011)[TS-Screener][Castellano-MIC][Drama][FS-BS-FLS-FKS] explo1515 Descargas 0 06-05-2011 17:41:13
Ispansi (Españoles) (2011) [Drama] [TS-Screener HQ] [Castellano] petardico Descargas 0 05-03-2011 23:27:07

 
Antiguo , 14:53:10   #1

Me Gusta
Estadisticas
Mensajes: 47
Me Gusta Recibidos: 0
Me Gustas Dados: 0
Ingreso: 26 nov 2011

Temas Nominados a TDM
Temas Nominados Temas Nominados 0
Nominated Temas Ganadores: 0
Reputacion Poder de Credibilidad: 0
Puntos: 16
magicbibi el Usuariox esta entre el bien y el mal
  
Shocked Un Método Peligroso [2011][TS-Screener HQ Sin Subs Pegados][Castellano][Drama] Calificación: de 5,00


Un Metodo Peligroso






[CODE]TÍTULO ORIGINAL A Dangerous Method
AÑO 2011
DURACIÓN 93 min.
DIRECTOR David Cronenberg
GUIÓN David Cronenberg (Novela: Christopher Hampton)
MÚSICA Howard Shore
FOTOGRAFÍA Peter Suschitzky
REPARTO Keira Knightley, Viggo Mortensen, Michael Fassbender, Vincent Cassel, Sarah Gadon, Katharina Palm, Christian Serritiello, Andrea Magro, Bjorn Geske, Franziska Arndt, Wladimir Matuchin, Clemens Giebel
PRODUCTORA Co-producción Canadá-Reino Unido-Alemania-Suiza; Recorded Picture Company (RPC) / Lago Film / Prospero Pictures / Millbrook Pictures
WEB OFICIAL http://adangerousmethod-themovie.com/
PREMIOS 2011: Festival de Venecia: Sección oficial largometrajes a concurso
2011: Festival de Toronto: Sección oficial largometrajes a concurso
GÉNERO Drama | Biográfico
[/CODE]

Una poderosa historia de descubrimiento sexual e intelectual basada en acontecimientos reales a partir de la turbulenta relación entre el joven psiquiatra Carl Jung (Michael Fassbender), su mentor Sigmund Freud (Viggo Mortensen) y Sabina Spielrein (Keira Knightley). A este trío se añade Otto Gross (Vincent Cassel), un paciente libertino decidido a traspasar todos los límites.
[CODE]General
Complete name : /Metodo.Peligroso.Ts.HQ.Castellano.by.MagicBibi.avi
Format : AVI
Format/Info : Audio Video Interleave
File size : 1.15 GiB
Duration : 1h 33mn
Overall bit rate : 1 764 Kbps
Writing application : VirtualDubMod 1.5.10.2 (build 2540/release)
Writing library : VirtualDubMod build 2540/release

Video
ID : 0
Format : MPEG-4 Visual
Format profile : Advanced Simple@L5
Format settings, BVOP : 2
Format settings, QPel : No
Format settings, GMC : No warppoints
Format settings, Matrix : Default (H.263)
Codec ID : XVID
Codec ID/Hint : XviD
Duration : 1h 33mn
Bit rate : 1 498 Kbps
Width : 704 pixels
Height : 368 pixels
Display aspect ratio : 1.913
Frame rate : 25.000 fps
Color space : YUV
Chroma subsampling : 4:2:0
Bit depth : 8 bits
Scan type : Progressive
Compression mode : Lossy
Bits/(Pixel*Frame) : 0.231
Stream size : 1 000 MiB (85%)
Writing library : XviD 63

Audio
ID : 1
Format : MPEG Audio
Format version : Version 1
Format profile : Layer 3
Codec ID : 55
Codec ID/Hint : MP3
Duration : 1h 33mn
Bit rate mode : Constant
Bit rate : 256 Kbps
Channel(s) : 2 channels
Sampling rate : 44.1 KHz
Compression mode : Lossy
Delay relative to video : 19ms
Stream size : 171 MiB (15%)
Alignment : Split accross interleaves
Interleave, duration : 40 ms (1.00 video frame)
Interleave, preload duration : 500 ms
[/CODE]



[SPOILER]

[/SPOILER]




http://www.fileserve.com/file/x7C8Jac
http://www.fileserve.com/file/FWAwAdJ

http://www.filejungle.com/f/FFkawt
http://www.filejungle.com/f/Ae3TPm

http://filepost.com/files/df9m5a7e/M....avi.part1.rar
http://filepost.com/files/b936daeb/M....avi.part2.rar

Post Creado con Magic Post Creator

Comentarios Facebook

magicbibi no está en línea  

compartir
                 
remocion sep Gold sep Silver sep Donar

marcaNo Calculado   #1.5
SponSor

avatar
 
Me Gusta denunciando
Estadisticas
Mensajes: 898.814
Me Gusta Recibidos: 75415
Me Gustado Dados: 62988
Fecha de Ingreso: 02 jun 2006
Reputacion
Puntos: 1574370
Ayudante de Santa está en el buen caminoAyudante de Santa está en el buen caminoAyudante de Santa está en el buen caminoAyudante de Santa está en el buen caminoAyudante de Santa está en el buen caminoAyudante de Santa está en el buen caminoAyudante de Santa está en el buen caminoAyudante de Santa está en el buen caminoAyudante de Santa está en el buen caminoAyudante de Santa está en el buen caminoAyudante de Santa está en el buen caminoAyudante de Santa está en el buen caminoAyudante de Santa está en el buen caminoAyudante de Santa está en el buen camino
emoticon Re: Un Método Peligroso [2011][TS-Screener HQ Sin Subs Pegados][Castellano][Drama]

 
 
   
   
_______________________________________________
Publicidad :)
conectado
 

Etiquetas
2011tsscreener, metodo, pegadoscastellanodrama, peligroso, subs

Herramientas



La franja horaria es GMT -5. Ahora son las 16:43:41.
Desarrollado por: vBulletin® Versión 3.8.9
Derechos de Autor ©2000 - 2018, Jelsoft Enterprises Ltd.
DeNunCianDo.CoM ©
DeNunCianDo


Page generated in 0,06123 seconds with 14 queries

SEO by vBSEO