DeNunCianDo  
Denunciando   Urbantuning   Futbol Es Pasion   Video Porno luly bossa Completo   Video Porno Sandra Muños Completo   Alejandra Omaña Primer video porno   Lina Arroyave, DESNUDA, la mama del hijo de Kevin Roldan   

Retroceder   DeNunCianDo » ..:::: CoMuNiDaD DeNunCianDo.CoM ::::.. » Discusiones Generales » Peliculas, Cine y Teatro » Descargas

Descargas Zona dedicada a todo lo relacionado con descargas de películas en general. Acá podrás encontrar descargas directas y demás.

Hola Invitado!
Tómate un minuto para registrarte, es 100% GRATIS y no verás ninguna publicidad! ¿Qué estás esperando?
tapatalk Para Ingresa a Denunciando.com por medio de TapaTalk Clic ACA
Registrarse Ahora
Descargas »

Un método peligroso (2011)(TS scr HQ sin subs pegados)(cast. mic)(Drama)

Participa en el tema Un método peligroso (2011)(TS scr HQ sin subs pegados)(cast. mic)(Drama) en el foro Descargas.
....



Temas Similares
Tema Autor Foro Respuestas Último mensaje
Un método peligroso [1LINK][TS screener][castellano mic][drama, biográfico][2011] magicbibi Descargas 0 28-11-2011 02:14:46
5 Dias de Guerra [2011] [Ing Subs Cast] [Dvdrip] elquijote Descargas 0 20-08-2011 20:58:25
Destino Oculto [2011] [Ing Subs Cast] [Dvdrip] [accion] elquijote Descargas 0 20-08-2011 20:41:14
True Grit [2011] [Ing Subs Cast] [Dvdrip] [accion] elquijote Descargas 0 20-08-2011 20:08:49
El Rito 2011 [DvdRip][Español Latino +Subs Pegados] 1 Link chalo_G Descargas 0 18-04-2011 20:35:50

 
Antiguo , 12:47:27   #1

Me Gusta
Estadisticas
Mensajes: 6
Me Gusta Recibidos: 0
Me Gustas Dados: 0
Ingreso: 15 nov 2011

Temas Nominados a TDM
Temas Nominados Temas Nominados 0
Nominated Temas Ganadores: 0
Reputacion Poder de Credibilidad: 0
Puntos: 10
bolivarbuxv1 el Usuariox esta entre el bien y el mal
  
Predeterminado Un método peligroso (2011)(TS scr HQ sin subs pegados)(cast. mic)(Drama) Calificación: de 5,00



Un método peligroso (2011)(TS scr HQ sin subs pegados)(cast. mic)(Drama)


FICHA TÉCNICA Y SINOPSIS

Drama | 93 min. | Web oficial | En cines

Título: Un método peligroso
Título original: A Dangerous Method
País: Cánada, Reino Unido, Alemania
Estreno en USA: 23/11/2011
Estreno en España: 25/11/2011
Productora: Recorded Picture Company, Lago film, Prospero Pictures, Millbrook Pictures
Director: David Cronenberg
Guión: David Cronenberg
Reparto: Keira Knightley, Viggo Mortensen, Michael Fassbender, Vincent Cassel, Sarah Gadon, Katharina Palm, Christian Serritiello, Andrea Magro, Bjorn Geske, Franziska Arndt, Wladimir Matuchin, Clemens Giebel
Calificación: No recomendada para menores de 12 años


Sinopsis:

Transcurre en los albores de la I Guerra Mundial. Es una poderosa historia de descubrimiento sexual e intelectual basada en acontecimientos reales a partir de la turbulenta relación entre el joven psiquiatra Carl Jung (Michael Fassbender), su mentor Sigmund Freud (Viggo Mortensen) y Sabina Spielrein (Keira Knightley). A este trío se añade Otto Gross (Vincent Cassel), un paciente libertino decidido a traspasar todos los límites. Esta exploración de la sensualidad, de la ambición y del engaño llega a su momento cumbre cuando Jung, Freud y Sabina se reúnen antes de separarse definitivamente y cambiar la dirección del pensamiento moderno.

Notas de producción:

- Adaptación de la obra de 2002 "The Talking Cure", de Christopher Hampton.




DATOS DEL ARCHIVO


General
Complete name : D:\descargas\metodo.TS.hq.cast.avi
Format : AVI
Format/Info : Audio Video Interleave
File size : 1.15 GiB
Duration : 1h 33mn
Overall bit rate : 1 764 Kbps
Writing application : VirtualDubMod 1.5.10.2 (build 2540/release)
Writing library : VirtualDubMod build 2540/release

Video
ID : 0
Format : MPEG-4 Visual
Format profile : Advanced Simple@L5
Format settings, BVOP : 2
Format settings, QPel : No
Format settings, GMC : No warppoints
Format settings, Matrix : Default (H.263)
Codec ID : XVID
Codec ID/Hint : XviD
Duration : 1h 33mn
Bit rate : 1 498 Kbps
Width : 704 pixels
Height : 368 pixels
Display aspect ratio : 1.913
Frame rate : 25.000 fps
Color space : YUV
Chroma subsampling : 4:2:0
Bit depth : 8 bits
Scan type : Progressive
Compression mode : Lossy
Bits/(Pixel*Frame) : 0.231
Stream size : 1 000 MiB (85%)
Writing library : XviD 63

Audio
ID : 1
Format : MPEG Audio
Format version : Version 1
Format profile : Layer 3
Codec ID : 55
Codec ID/Hint : MP3
Duration : 1h 33mn
Bit rate mode : Constant
Bit rate : 256 Kbps
Channel(s) : 2 channels
Sampling rate : 44.1 KHz
Compression mode : Lossy
Delay relative to video : 19ms
Stream size : 171 MiB (15%)
Alignment : Split accross interleaves
Interleave, duration : 40 ms (1.00 video frame)
Interleave, preload duration : 500 ms

CAPTURAS


[IMG]http://img528.**************/img528/5648/metodotshqcastavisnapsh.jpg[/IMG]

[IMG]http://img11.**************/img11/5648/metodotshqcastavisnapsh.jpg[/IMG]


Servidores Intercambiables









[code]http://www.fileserve.com/file/93bgbte
http://www.fileserve.com/file/J28nQ2s
http://www.fileserve.com/file/fHfaSzf[/code]



[code] http://www.uploadstation.com/file/9BKqmFz
http://www.uploadstation.com/file/saaVaBg
http://www.uploadstation.com/file/HncW6K5[/code]



[code] http://www.filejungle.com/f/5pxJTV
http://www.filejungle.com/f/uQyXBY
http://www.filejungle.com/f/ACRhaf[/code]

Comentarios Facebook

bolivarbuxv1 no está en línea  

compartir
                 
remocion sep Gold sep Silver sep Donar

marcaNo Calculado   #1.5
SponSor

avatar
 
Me Gusta denunciando
Estadisticas
Mensajes: 898.814
Me Gusta Recibidos: 75415
Me Gustado Dados: 62988
Fecha de Ingreso: 02 jun 2006
Reputacion
Puntos: 1574370
Ayudante de Santa está en el buen caminoAyudante de Santa está en el buen caminoAyudante de Santa está en el buen caminoAyudante de Santa está en el buen caminoAyudante de Santa está en el buen caminoAyudante de Santa está en el buen caminoAyudante de Santa está en el buen caminoAyudante de Santa está en el buen caminoAyudante de Santa está en el buen caminoAyudante de Santa está en el buen caminoAyudante de Santa está en el buen caminoAyudante de Santa está en el buen caminoAyudante de Santa está en el buen caminoAyudante de Santa está en el buen camino
emoticon Re: Un método peligroso (2011)(TS scr HQ sin subs pegados)(cast. mic)(Drama)

 
 
   
   
_______________________________________________
Publicidad :)
conectado
 

Etiquetas
2011ts, metodo, micdrama, pegadoscast, peligroso, scr, subs

Herramientas



La franja horaria es GMT -5. Ahora son las 01:01:45.
Desarrollado por: vBulletin® Versión 3.8.9
Derechos de Autor ©2000 - 2018, Jelsoft Enterprises Ltd.
DeNunCianDo.CoM ©
DeNunCianDo


Page generated in 0,06156 seconds with 14 queries

SEO by vBSEO