DeNunCianDo  
Denunciando   Video Porno luly bossa Completo   Video Porno Sandra Muños Completo   Alejandra Omaña Primer video porno   Lina Arroyave, DESNUDA, la mama del hijo de Kevin Roldan   

Retroceder   DeNunCianDo » ..:::: CoMuNiDaD DeNunCianDo.CoM ::::.. » Discusiones Generales » Peliculas, Cine y Teatro » Descargas

Descargas Zona dedicada a todo lo relacionado con descargas de películas en general. Acá podrás encontrar descargas directas y demás.

Hola Invitado!
Tómate un minuto para registrarte, es 100% GRATIS y no verás ninguna publicidad! ¿Qué estás esperando?
tapatalk Para Ingresa a Denunciando.com por medio de TapaTalk Clic ACA
Registrarse Ahora
Descargas »

El Castor [2011] [BRScreener] [DUAL: Castellano e Inglés] [Comedia/Drama]

Participa en el tema El Castor [2011] [BRScreener] [DUAL: Castellano e Inglés] [Comedia/Drama] en el foro Descargas.
Video ID : 0 Format : MPEG-4 Visual Format profile : Advanced [email protected] Format settings, BVOP : 2 Format settings, ....



Temas Similares
Tema Autor Foro Respuestas Último mensaje
Win Win Ganamos todos (2011) [BRScreener][Dual: Castellano e Inglés][Comedia][WU-UP-US] theuploaded Descargas 0 06-08-2011 13:00:48
El Castor [2011][HDTVScreener 720p][Dual:Castellano/Inglés][Comedia/Drama][WU-UP-US] theuploaded Descargas 0 06-08-2011 12:52:42
El Castor [2011] [HDTVScreener HQ PROPER 480p][Dual:Castellano e Inglés][WU-UP-US] theuploaded Descargas 0 06-08-2011 12:47:08
El castor 2011 [HDTVscreener][Dual(Castellano/ingles)][Comedia/Drama][WU-UP-US] theuploaded Descargas 0 05-08-2011 21:37:46
El castor 2011 [HDTVscreener][Castellano][Comedia/Drama][WU-UP-US] theuploaded Descargas 0 05-08-2011 21:31:45

 
Antiguo , 16:17:19   #1

Me Gusta
Estadisticas
Mensajes: 74
Me Gusta Recibidos: 4
Me Gustas Dados: 0
Ingreso: 14 dic 2010

Temas Nominados a TDM
Temas Nominados Temas Nominados 0
Nominated Temas Ganadores: 0
Reputacion Poder de Credibilidad: 0
Puntos: 57
jeshuem el Usuariox va por buen camino
  
Predeterminado El Castor [2011] [BRScreener] [DUAL: Castellano e Inglés] [Comedia/Drama] Calificación: de 5,00



Video
ID : 0
Format : MPEG-4 Visual
Format profile : Advanced [email protected]
Format settings, BVOP : 2
Format settings, QPel : No
Format settings, GMC : No warppoints
Format settings, Matrix : Custom
Codec ID : XVID
Codec ID/Hint : XviD
Duration : 1h 30mn
Bit rate : 1 951 Kbps
Width : 720 pixels
Height : 304 pixels
Display aspect ratio : 2.35:1
Frame rate : 23.976 fps
Color space : YUV
Chroma subsampling : 4:2:0
Bit depth : 8 bits
Scan type : Progressive
Compression mode : Lossy
Bits/(Pixel*Frame) : 0.372
Stream size : 1.24 GiB (76%)
Writing library : XviD 58

Audio #1
ID : 1
Format : MPEG Audio
Format version : Version 1
Format profile : Layer 3
Codec ID : 55
Codec ID/Hint : MP3
Duration : 1h 30mn
Bit rate mode : Constant
Bit rate : 160 Kbps
Channel(s) : 2 channels
Sampling rate : 44.1 KHz
Compression mode : Lossy
Stream size : 104 MiB (6%)
Alignment : Split accross interleaves
Interleave, duration : 42 ms (1.00 video frame)
Interleave, preload duration : 500 ms

Audio #2
ID : 2
Format : AC-3
Format/Info : Audio Coding 3
Mode extension : CM (complete main)
Codec ID : 2000
Duration : 1h 30mn
Bit rate mode : Constant
Bit rate : 448 Kbps
Channel(s) : 6 channels
Channel positions : Front: L C R, Side: L R, LFE
Sampling rate : 48.0 KHz
Bit depth : 16 bits
Compression mode : Lossy
Stream size : 292 MiB (17%)
Alignment : Split accross interleaves
Interleave, duration : 42 ms (1.00 video frame)
Interleave, preload duration : 500 ms

[img][/img]

[code]
http://www.wupload.com/file/90813920
http://www.wupload.com/file/90813544
http://www.wupload.com/file/90813145
[/code]

Comentarios Facebook

jeshuem no está en línea  

compartir
                 
remocion sep Gold sep Silver sep Donar

marcaNo Calculado   #1.5
SponSor

avatar
 
Me Gusta denunciando
Estadisticas
Mensajes: 898.814
Me Gusta Recibidos: 75415
Me Gustado Dados: 62988
Fecha de Ingreso: 02 jun 2006
Reputacion
Puntos: 1574370
Ayudante de Santa está en el buen caminoAyudante de Santa está en el buen caminoAyudante de Santa está en el buen caminoAyudante de Santa está en el buen caminoAyudante de Santa está en el buen caminoAyudante de Santa está en el buen caminoAyudante de Santa está en el buen caminoAyudante de Santa está en el buen caminoAyudante de Santa está en el buen caminoAyudante de Santa está en el buen caminoAyudante de Santa está en el buen caminoAyudante de Santa está en el buen caminoAyudante de Santa está en el buen caminoAyudante de Santa está en el buen camino
emoticon Re: El Castor [2011] [BRScreener] [DUAL: Castellano e Inglés] [Comedia/Drama]

 
 
   
   
_______________________________________________
Publicidad :)
conectado
 

Etiquetas
2011, brscreener, castellano, castor, comedia or drama, dual, ingles

Herramientas



La franja horaria es GMT -5. Ahora son las 06:20:18.
Desarrollado por: vBulletin® Versión 3.8.9
Derechos de Autor ©2000 - 2018, Jelsoft Enterprises Ltd.
DeNunCianDo.CoM ©
DeNunCianDo


Page generated in 0,04461 seconds with 14 queries

SEO by vBSEO