DeNunCianDo  
Denunciando   Video Porno luly bossa Completo   Video Porno Sandra Muños Completo   Alejandra Omaña Primer video porno   Lina Arroyave, DESNUDA, la mama del hijo de Kevin Roldan   

Retroceder   DeNunCianDo » ..:::: CoMuNiDaD DeNunCianDo.CoM ::::.. » Discusiones Generales » Peliculas, Cine y Teatro » Descargas

Descargas Zona dedicada a todo lo relacionado con descargas de películas en general. Acá podrás encontrar descargas directas y demás.

Hola Invitado!
Tómate un minuto para registrarte, es 100% GRATIS y no verás ninguna publicidad! ¿Qué estás esperando?
tapatalk Para Ingresa a Denunciando.com por medio de TapaTalk Clic ACA
Registrarse Ahora
Descargas »

Para qué sirve un oso? [2011][DVDRip][Castellano-AC3-5.1

Participa en el tema Para qué sirve un oso? [2011][DVDRip][Castellano-AC3-5.1 en el foro Descargas.
....



Temas Similares
Tema Autor Foro Respuestas Último mensaje
Saw VII 3D 2011 [DVDRip][Castellano Ac3 5.1][WU] Epiel Descargas 0 28-06-2011 15:28:49
El 23 F 2011 [DVDRip][Castellano Ac3 5.1][WU] Epiel Descargas 0 21-06-2011 11:42:50
Marcados Para Morir [Castellano][DVDRip][AC3 5.1][Accion][2011] ErLuiSS Descargas 0 28-05-2011 10:02:25
Amenazados [Castellano][DVDRip][AC3 5.1][Thriller][2011] [Castellano][DVDRip][AC3 5.1][Drama][2011] ErLuiSS Descargas 0 25-05-2011 11:32:38
¿Para qué sirve un oso? (2011) [Comedia] [TS-Screener HQ] [Castellano] petardico Descargas 0 02-04-2011 22:51:21

 
Antiguo , 12:42:22   #1

Me Gusta
Estadisticas
Mensajes: 49
Me Gusta Recibidos: 1
Me Gustas Dados: 0
Ingreso: 05 jul 2011

Temas Nominados a TDM
Temas Nominados Temas Nominados 0
Nominated Temas Ganadores: 0
Reputacion Poder de Credibilidad: 0
Puntos: 117
mangui el Usuariox se nos esta haciendo popularmangui el Usuariox se nos esta haciendo popular
  
Predeterminado Para qué sirve un oso? [2011][DVDRip][Castellano-AC3-5.1 Calificación: de 5,00

¿Para qué sirve un oso? [2011][DVDRip][Castellano-AC3-5.1][Comedia]13/07/2011





TÍTULO ORIGINAL: ¿Para qué sirve un oso?
AÑO: 2011
DURACIÓN: 100 min.
PAÍS: [España]
DIRECTOR: Tom Fernández
GUIÓN: Tom Fernández
MÚSICA: Mauricio Villavecchia
FOTOGRAFÍA: Arnau Valls
REPARTO: Javier Cámara, Gonzalo de Castro, Emma Suárez, Jesse Johnson, Geraldine Chaplin, Oona Chaplin, Sira García
PRODUCTORA: Versatil Cinema / Alta Producción / TV3 / TVE
GÉNERO: Comedia | Naturaleza
PREMIOS: 2011: Festival de Málaga: Mejor director, actriz secundaria (Geraldine Chaplin), montaje



Alejandro y Guillermo son dos hermanos asturianos enamorados de la Naturaleza desde que eran niños. Alejandro es un prestigioso zoólogo de carácter aventurero que investiga la vida salvaje y vive en los árboles como un animal más. Guillermo es un biólogo de prestigio internacional, que ha recibido multitud de premios; un día descubre un brote verde en la Antártida y, convencido de que la batalla está perdida, lo abandona todo y regresa a Asturias. Una vez allí, busca a su hermano Alejandro en el bosque en el que vive. Desde la llegada de Guillermo al bosque, los ecosistemas sentimentales de los personajes se verán alterados. (FILMAFFINITY)


Format : AVI
Format/Info : Audio Video Interleave
Format profile : OpenDML
File size : 1.01 GiB
Duration : 1h 32mn
Overall bit rate : 1 562 Kbps
Writing application : Lavf52.78.4

Video
ID : 0
Format : MPEG-4 Visual
Format profile : Advanced Simple@L5
Format settings, BVOP : 2
Format settings, QPel : No
Format settings, GMC : No warppoints
Format settings, Matrix : Default (H.263)
Muxing mode : Packed bitstream
Codec ID : DX50
Codec ID/Hint : DivX 5
Duration : 1h 32mn
Bit rate : 70.5 Kbps
Width : 720 pixels
Height : 306 pixels
Display aspect ratio : 2.35:1
Frame rate : 25.000 fps
Color space : YUV
Chroma subsampling : 4:2:0
Bit depth : 8 bits
Scan type : Progressive
Compression mode : Lossy
Bits/(Pixel*Frame) : 0.013
Stream size : 46.8 MiB (5%)
Writing library : XviD 1.2.1 (UTC 2008-12-04)

Audio
ID : 1
Format : AC-3
Format/Info : Audio Coding 3
Mode extension : CM (complete main)
Codec ID : 2000
Duration : 1h 32mn
Bit rate mode : Constant
Bit rate : 448 Kbps
Channel(s) : 6 channels
Channel positions : Front: L C R, Side: L R, LFE
Sampling rate : 48.0 KHz
Bit depth : 16 bits
Compression mode : Lossy
Stream size : 1.75 MiB (0%)
Alignment : Aligned on interleaves
Interleave, duration : 351 ms (8.78 video frames)






Servidores Intercambiables


3 link







[code] http://www.wupload.com/file/55231269
http://www.wupload.com/file/55233871
http://www.wupload.com/file/55231808 [/code]



[code] http://www.fileserve.com/file/RHCWY7n
http://www.fileserve.com/file/KvAwc5Q
http://www.fileserve.com/file/GXdZK2Q [/code]



[code] http://www.uploadstation.com/file/TFKxU8D
http://www.uploadstation.com/file/SxPqFKB
http://www.uploadstation.com/file/edWNYjp [/code]


Comentarios Facebook

mangui no está en línea  

compartir
                 
remocion sep Gold sep Silver sep Donar

marcaNo Calculado   #1.5
SponSor

avatar
 
Me Gusta denunciando
Estadisticas
Mensajes: 898.814
Me Gusta Recibidos: 75415
Me Gustado Dados: 62988
Fecha de Ingreso: 02 jun 2006
Reputacion
Puntos: 1574370
Ayudante de Santa está en el buen caminoAyudante de Santa está en el buen caminoAyudante de Santa está en el buen caminoAyudante de Santa está en el buen caminoAyudante de Santa está en el buen caminoAyudante de Santa está en el buen caminoAyudante de Santa está en el buen caminoAyudante de Santa está en el buen caminoAyudante de Santa está en el buen caminoAyudante de Santa está en el buen caminoAyudante de Santa está en el buen caminoAyudante de Santa está en el buen caminoAyudante de Santa está en el buen caminoAyudante de Santa está en el buen camino
emoticon Re: Para qué sirve un oso? [2011][DVDRip][Castellano-AC3-5.1

 
 
   
   
_______________________________________________
Publicidad :)
conectado
 

Etiquetas
2011dvdripcastellanoac, oso, sirve

Herramientas



La franja horaria es GMT -5. Ahora son las 09:28:40.
Desarrollado por: vBulletin® Versión 3.8.9
Derechos de Autor ©2000 - 2018, Jelsoft Enterprises Ltd.
DeNunCianDo.CoM ©
DeNunCianDo


Page generated in 0,05196 seconds with 14 queries

SEO by vBSEO