DeNunCianDo  
Denunciando   Video Porno luly bossa Completo   Video Porno Sandra Muños Completo   Alejandra Omaña Primer video porno   Lina Arroyave, DESNUDA, la mama del hijo de Kevin Roldan   

Retroceder   DeNunCianDo » ..:::: CoMuNiDaD DeNunCianDo.CoM ::::.. » Discusiones Generales » Peliculas, Cine y Teatro » Descargas

Descargas Zona dedicada a todo lo relacionado con descargas de películas en general. Acá podrás encontrar descargas directas y demás.

Hola Invitado!
Tómate un minuto para registrarte, es 100% GRATIS y no verás ninguna publicidad! ¿Qué estás esperando?
tapatalk Para Ingresa a Denunciando.com por medio de TapaTalk Clic ACA
Registrarse Ahora
Descargas »

estado de sitio (DVDRIP)(ESP)(ACCION)

Participa en el tema estado de sitio (DVDRIP)(ESP)(ACCION) en el foro Descargas.
....



Temas Similares
Tema Autor Foro Respuestas Último mensaje
Como en casa en ningun sitio [Castellano][DVDRip][Comedia][2008] ErLuiSS Descargas 0 05-07-2011 14:12:02
Ben Hur [DVDRip][Castellano][Accion][2010] darkanimee Descargas 0 09-06-2011 11:15:50
Estado de alarma [DVDRip][Thriller][Castellano][1965][FS/FKS/FLS/BS] masato69 Descargas 0 29-12-2010 09:36:54
Espias en accion [DVDRip][comedia/Accion][Castellano][2005][FS] masato69 Descargas 0 15-12-2010 13:28:54
VPN IPSec de sitio a sitio con 3COM camrodri Internet Y Redes 0 05-03-2010 17:53:01

 
Antiguo , 12:17:23   #1

Me Gusta
Estadisticas
Mensajes: 58
Me Gusta Recibidos: 0
Me Gustas Dados: 0
Ingreso: 08 jun 2011

Temas Nominados a TDM
Temas Nominados Temas Nominados 0
Nominated Temas Ganadores: 0
Reputacion Poder de Credibilidad: 0
Puntos: 24
jonn06 el Usuariox esta entre el bien y el mal
  
Predeterminado estado de sitio (DVDRIP)(ESP)(ACCION) Calificación: de 5,00








Cita:
Titulo original: The siege
Año: 1998
Pais: EEUU
Director: Edward Zwick
Guion: Menno Meyjes, Edward Zwick, Lawrence Wright (Historia: Lawrence Wright)
Musica: Graeme Revell
Fotografia: Rogers Deakins
Reparto: Denzel Washington, Annette Bening, Bruce Willis, Tony Shalhoub, Sami Bouajila, David Proval.
Productora: 20th Century Fox
Genero: Acción. Terrorismo






Cita:
Más información Acción. Terrorismo / SINOPSIS: Tras el secuestro de un
lÃ*der religioso musulmán por el ejército norteamericano, la ciudad de
Nueva York se convierte en el objetivo de una escalada de atentados
terroristas. Anthony Hubbard, el director del equipo antiterrorista
del FBI en Nueva York, junto a la agente de la CIA Elise Kraft serán
los encargados de detener a la organización responsable de la ola de
terror. Mientras tanto, el gobierno decide declarar la ley marcial en la Gran Manzana







Cita:
Format : AVI
Format/Info : Audio Video Interleave
File size : 701 MiB
Duration : 1h 51mn
Overall bit rate : 881 Kbps
Writing application : VirtualDubMod 1.5.10.2 (build 2540/release)
Writing library : VirtualDubMod build 2540/release

Video
ID : 0
Format : MPEG-4 Visual
Format profile : Advanced Simple@L5
Format settings, BVOP : 2
Format settings, QPel : No
Format settings, GMC : No warppoints
Format settings, Matrix : Default (H.263)
Muxing mode : Packed bitstream
Codec ID : XVID
Codec ID/Hint : XviD
Duration : 1h 51mn
Bit rate : 742 Kbps
Width : 576 pixels
Height : 240 pixels
Display aspect ratio : 2.40:1
Frame rate : 25.000 fps
Color space : YUV
Chroma subsampling : 4:2:0
Bit depth : 8 bits
Scan type : Progressive
Compression mode : Lossy
Bits/(Pixel*Frame) : 0.215
Stream size : 590 MiB (84%)
Writing library : XviD 1.1.2 (UTC 2006-11-01)

Audio
ID : 1
Format : MPEG Audio
Format version : Version 1
Format profile : Layer 3
Mode : Joint stereo
Mode extension : MS Stereo
Codec ID : 55
Codec ID/Hint : MP3
Duration : 1h 51mn
Bit rate mode : Variable
Bit rate : 128 Kbps
Channel(s) : 2 channels
Sampling rate : 48.0 KHz
Compression mode : Lossy
Stream size : 101 MiB (14%)
Alignment : Aligned on interleaves
Interleave, duration : 24 ms (0.60 video frame)
Interleave, preload duration : 127 ms












************************************************************ *************




http://ul.to/p7c5ohr8




http://www.fileserve.com/file/rNntDqT





http://www.wupload.com/file/53165536...o_(By_akr).avi

Comentarios Facebook

jonn06 no está en línea  

compartir
                 
remocion sep Gold sep Silver sep Donar

marcaNo Calculado   #1.5
SponSor

avatar
 
Me Gusta denunciando
Estadisticas
Mensajes: 898.814
Me Gusta Recibidos: 75415
Me Gustado Dados: 62988
Fecha de Ingreso: 02 jun 2006
Reputacion
Puntos: 1574370
Ayudante de Santa está en el buen caminoAyudante de Santa está en el buen caminoAyudante de Santa está en el buen caminoAyudante de Santa está en el buen caminoAyudante de Santa está en el buen caminoAyudante de Santa está en el buen caminoAyudante de Santa está en el buen caminoAyudante de Santa está en el buen caminoAyudante de Santa está en el buen caminoAyudante de Santa está en el buen caminoAyudante de Santa está en el buen caminoAyudante de Santa está en el buen caminoAyudante de Santa está en el buen caminoAyudante de Santa está en el buen camino
emoticon Re: estado de sitio (DVDRIP)(ESP)(ACCION)

 
 
   
   
_______________________________________________
Publicidad :)
conectado
 

Etiquetas
dvdripespaccion, sitio

Herramientas



La franja horaria es GMT -5. Ahora son las 13:26:25.
Desarrollado por: vBulletin® Versión 3.8.9
Derechos de Autor ©2000 - 2018, Jelsoft Enterprises Ltd.
DeNunCianDo.CoM ©
DeNunCianDo


Page generated in 0,05635 seconds with 14 queries

SEO by vBSEO