DeNunCianDo  
Denunciando   Video Porno luly bossa Completo   Video Porno Sandra Muños Completo   Alejandra Omaña Primer video porno   Lina Arroyave, DESNUDA, la mama del hijo de Kevin Roldan   

Retroceder   DeNunCianDo » ..:::: CoMuNiDaD DeNunCianDo.CoM ::::.. » Discusiones Generales » Peliculas, Cine y Teatro » Descargas

Descargas Zona dedicada a todo lo relacionado con descargas de películas en general. Acá podrás encontrar descargas directas y demás.

Hola Invitado!
Tómate un minuto para registrarte, es 100% GRATIS y no verás ninguna publicidad! ¿Qué estás esperando?
tapatalk Para Ingresa a Denunciando.com por medio de TapaTalk Clic ACA
Registrarse Ahora
Descargas »

El amor de tony (2010)[DVD-Screener-][Castellano

Participa en el tema El amor de tony (2010)[DVD-Screener-][Castellano en el foro Descargas.
....



Temas Similares
Tema Autor Foro Respuestas Último mensaje
El amor de tony (2011)[DVD-Screener-HQ][Castellano-MIC][Romance][FS-US-FLS-WU-UP] explo1515 Descargas 0 09-07-2011 17:53:56
El amor de Tony (2010) [Drama] [DVDScreener] [Castellano] petardico Descargas 0 07-07-2011 22:44:28
No lo llames amor... llamalo X (2011) [Comedia] [TS-Screener HQ] [Castellano] petardico Descargas 0 18-05-2011 22:57:51
Secuestrados (2010) [Terror] [TS-Screener HQ] [Castellano] petardico Descargas 1 03-03-2011 00:01:27
Iron Man 2 [TS-Screener][Castellano MIC][2010] TakeC Descargas 0 01-05-2010 11:42:09

 
Antiguo , 04:27:12   #1

Me Gusta
Estadisticas
Mensajes: 49
Me Gusta Recibidos: 1
Me Gustas Dados: 0
Ingreso: 05 jul 2011

Temas Nominados a TDM
Temas Nominados Temas Nominados 0
Nominated Temas Ganadores: 0
Reputacion Poder de Credibilidad: 0
Puntos: 117
mangui el Usuariox se nos esta haciendo popularmangui el Usuariox se nos esta haciendo popular
  
Predeterminado El amor de tony (2010)[DVD-Screener-][Castellano Calificación: de 5,00





TÍTULO ORIGINAL Angèle et Tony
AÑO 2010
DURACIÓN 87 min.
PAÍS [Francia]
DIRECTOR Alix Delaporte
GUIÓN Alix Delaporte
MÚSICA Mathieu Maestracci
FOTOGRAFÍA Claire Mathon
REPARTO Clotilde Hesme, Grégory Gadebois, Evelyne Didi, Antoine Couleau, Corine Marienneau, Dany Verissimo, Patrick Descamps, Lola Dueñas, Jérôme Huguet
PRODUCTORA Lionceau Films / Cofinova 6
GÉNERO Drama. Romance

Angela tiene buenas razones para construir una nueva vida cuando conoce Tony, un pescador en busca de sentimientos. A pesar de su deseo por ella, Tony mantiene las distancias. Angela le busca. Tony la observa. Demasiado bella, el no puedo creer que ella está allí por él...



General
Complete name : files/El.Amor.De.Tony.DVDS.Castellano.avi
Format : AVI
Format/Info : Audio Video Interleave
File size : 1.19 GiB
Duration : 1h 19mn
Overall bit rate : 2 140 Kbps
Writing application : VirtualDubMod 1.5.4.1 (build 2178/release)
Writing library : VirtualDubMod build 2178/release

Video
ID : 0
Format : MPEG-4 Visual
Format profile : Advanced Simple@L5
Format settings, BVOP : No
Format settings, QPel : No
Format settings, GMC : No warppoints
Format settings, Matrix : Custom
Codec ID : XVID
Codec ID/Hint : XviD
Duration : 1h 19mn
Bit rate : 2 003 Kbps
Width : 720 pixels
Height : 384 pixels
Display aspect ratio : 1.875
Frame rate : 25.000 fps
Color space : YUV
Chroma subsampling : 4:2:0
Bit depth : 8 bits
Scan type : Progressive
Compression mode : Lossy
Bits/(Pixel*Frame) : 0.290
Stream size : 1.11 GiB (94%)
Writing library : XviD 62

Audio
ID : 1
Format : MPEG Audio
Format version : Version 1
Format profile : Layer 3
Mode : Joint stereo
Mode extension : MS Stereo
Codec ID : 55
Codec ID/Hint : MP3
Duration : 1h 19mn
Bit rate mode : Constant
Bit rate : 128 Kbps
Channel(s) : 2 channels
Sampling rate : 44.1 KHz
Compression mode : Lossy
Stream size : 72.9 MiB (6%)
Alignment : Split accross interleaves
Interleave, duration : 40 ms (1.00 video frame)
Interleave, preload duration : 500 ms
Language : French






Servidores Intercambiables


3 link







[code] http://www.wupload.com/file/49856851/
http://www.wupload.com/file/49855505
http://www.wupload.com/file/49856852 [/code]



[code] http://www.fileserve.com/file/RbVNc6a
http://www.fileserve.com/file/xr6NmTh
http://www.fileserve.com/file/vZ5nqfY [/code]



[code] http://www.uploadstation.com/file/3UsKKYT
http://www.uploadstation.com/file/8SQGTkQ
http://www.uploadstation.com/file/8A4QSvz [/code]


Comentarios Facebook

mangui no está en línea  

compartir
                 
remocion sep Gold sep Silver sep Donar

marcaNo Calculado   #1.5
SponSor

avatar
 
Me Gusta denunciando
Estadisticas
Mensajes: 898.814
Me Gusta Recibidos: 75415
Me Gustado Dados: 62988
Fecha de Ingreso: 02 jun 2006
Reputacion
Puntos: 1574370
Ayudante de Santa está en el buen caminoAyudante de Santa está en el buen caminoAyudante de Santa está en el buen caminoAyudante de Santa está en el buen caminoAyudante de Santa está en el buen caminoAyudante de Santa está en el buen caminoAyudante de Santa está en el buen caminoAyudante de Santa está en el buen caminoAyudante de Santa está en el buen caminoAyudante de Santa está en el buen caminoAyudante de Santa está en el buen caminoAyudante de Santa está en el buen caminoAyudante de Santa está en el buen caminoAyudante de Santa está en el buen camino
emoticon Re: El amor de tony (2010)[DVD-Screener-][Castellano

 
 
   
   
_______________________________________________
Publicidad :)
conectado
 

Etiquetas
2010dvdscreenercastellano, amor, tony

Herramientas



La franja horaria es GMT -5. Ahora son las 19:27:34.
Desarrollado por: vBulletin® Versión 3.8.9
Derechos de Autor ©2000 - 2018, Jelsoft Enterprises Ltd.
DeNunCianDo.CoM ©
DeNunCianDo


Page generated in 0,05151 seconds with 14 queries

SEO by vBSEO