DeNunCianDo  
Denunciando   Urbantuning   Futbol Es Pasion   Video Porno luly bossa Completo   Video Porno Sandra Muños Completo   Alejandra Omaña Primer video porno   Lina Arroyave, DESNUDA, la mama del hijo de Kevin Roldan   

Retroceder   DeNunCianDo » ..:::: CoMuNiDaD DeNunCianDo.CoM ::::.. » Discusiones Generales » Peliculas, Cine y Teatro » Descargas

Descargas Zona dedicada a todo lo relacionado con descargas de películas en general. Acá podrás encontrar descargas directas y demás.

Hola Invitado!
Tómate un minuto para registrarte, es 100% GRATIS y no verás ninguna publicidad! ¿Qué estás esperando?
tapatalk Para Ingresa a Denunciando.com por medio de TapaTalk Clic ACA
Registrarse Ahora
Descargas »

Saw 7 3D (2011)(BDrip 1080p x264 mkv)(es-AC3 5.1/en-DTS)(Terror/gore)

Participa en el tema Saw 7 3D (2011)(BDrip 1080p x264 mkv)(es-AC3 5.1/en-DTS)(Terror/gore) en el foro Descargas.
[SIZE=4][FONT=Impact]FICHA TÉCNICA Y SINOPSIS DATOS DEL ARCHIVO Código: General Complete name aw7 BDrip 1080p oceanic.mkv Format : Matroska File size ....



Temas Similares
Tema Autor Foro Respuestas Último mensaje
1408[BDRip][Ingles / Subs Español][x264-DTS][Terror][2007][FS/FS] malofez Descargas 0 21-05-2011 15:13:51
The One (2001) BDRip x264-HHU nupakachi Descargas 0 03-08-2010 06:34:44
The One (2001) BDRip x264-HHU nupakachi Descargas 0 31-07-2010 11:20:54
The Day the Earth Stood Still 1080p BluRay x264 mr.koll0708 Descargas 1 15-05-2010 07:29:27
Kamasutra (2008) BDRip 1080p iamghost Sexualidad y Salud 6 16-02-2010 17:38:57

 
Antiguo , 06:04:25   #1

Me Gusta
Estadisticas
Mensajes: 1
Me Gusta Recibidos: 0
Me Gustas Dados: 0
Ingreso: 28 jun 2011

Temas Nominados a TDM
Temas Nominados Temas Nominados 0
Nominated Temas Ganadores: 0
Reputacion Poder de Credibilidad: 0
Puntos: 12
carleetonet el Usuariox esta entre el bien y el mal
  
Predeterminado Saw 7 3D (2011)(BDrip 1080p x264 mkv)(es-AC3 5.1/en-DTS)(Terror/gore) Calificación: de 5,00


[SIZE=4][FONT=Impact]FICHA TÉCNICA Y SINOPSIS



DATOS DEL ARCHIVO

Código: General
Complete name aw7 BDrip 1080p oceanic.mkv
Format : Matroska
File size : 9.02 GiB
Duration : 1h 30mn
Overall bit rate : 14.4 Mbps
Encoded date : UTC 2011-06-28 18:00:24
Writing application : mkvmerge v3.3.0 ('Language') built on Mar 24 2010 14:59:24
Writing library : libebml v0.8.0 + libmatroska v0.9.0

Video
ID : 1
Format : AVC
Format/Info : Advanced Video Codec
Format profile : High@L4.1
Format settings, CABAC : Yes
Format settings, ReFrames : 4 frames
Codec ID : V_MPEG4/ISO/AVC
Duration : 1h 30mn
Bit rate : 12.4 Mbps
Width : 1 920 pixels
Height : 1 080 pixels
Display aspect ratio : 16:9
Frame rate : 23.976 fps
Color space : YUV
Chroma subsampling : 4:2:0
Bit depth : 8 bits
Scan type : Progressive
Bits/(Pixel*Frame) : 0.249
Stream size : 7.61 GiB (84%)
Writing library : x264 core 98 r1649 20cbe10
Encoding settings : cabac=1 / ref=4 / deblock=1:-3:-3 / analyse=0x3:0x113 / me=umh / subme=10 / psy=1 / psy_rd=1.00:0.00 / mixed_ref=1 / me_range=64 / chroma_me=1 / trellis=2 / 8x8dct=1 / cqm=0 / deadzone=21,11 / fast_pskip=0 / chroma_qp_offset=-2 / threads=9 / sliced_threads=0 / nr=0 / decimate=0 / interlaced=0 / constrained_intra=0 / bframes=6 / b_pyramid=2 / b_adapt=2 / b_bias=0 / direct=3 / weightb=1 / weightp=2 / keyint=250 / keyint_min=25 / scenecut=40 / intra_refresh=0 / rc_lookahead=50 / rc=2pass / mbtree=1 / bitrate=12403 / ratetol=1.0 / qcomp=0.60 / qpmin=10 / qpmax=51 / qpstep=4 / cplxblur=20.0 / qblur=0.5 / vbv_maxrate=50000 / vbv_bufsize=50000 / ip_ratio=1.40 / aq=1:0.90 / nal_hrd=none
Language : English

Audio #1
ID : 2
Format : AC-3
Format/Info : Audio Coding 3
Mode extension : CM (complete main)
Codec ID : A_AC3
Duration : 1h 30mn
Bit rate mode : Constant
Bit rate : 448 Kbps
Channel(s) : 6 channels
Channel positions : Front: L C R, Side: L R, LFE
Sampling rate : 48.0 KHz
Bit depth : 16 bits
Compression mode : Lossy
Stream size : 288 MiB (3%)
Language : Spanish

Audio #2
ID : 3
Format : DTS
Format/Info : Digital Theater Systems
Codec ID : A_DTS
Duration : 1h 30mn
Bit rate mode : Constant
Bit rate : 1 510 Kbps
Channel(s) : 6 channels
Channel positions : Front: L C R, Side: L R, LFE
Sampling rate : 48.0 KHz
Bit depth : 24 bits
Compression mode : Lossy
Stream size : 972 MiB (11%)
Language : English

Text
ID : 4
Format : UTF-8
Codec ID : S_TEXT/UTF8
Codec ID/Info : UTF-8 Plain Text
Language : Spanish[COLOR=Navy][SIZE=4][FONT=Impact]

CAPTURAS




http://www.wupload.com/file/37791586/s3d.part01.rar
http://www.wupload.com/file/37789460/s3d.part02.rar
http://www.wupload.com/file/37636585/s3d.part03.rar
http://www.wupload.com/file/37789448/s3d.part04.rar
http://www.wupload.com/file/37637113/s3d.part05.rar
http://www.wupload.com/file/37638039/s3d.part06.rar
http://www.wupload.com/file/37637120/s3d.part07.rar
http://www.wupload.com/file/37636566/s3d.part08.rar
http://www.wupload.com/file/37790701/s3d.part09.rar
http://www.wupload.com/file/37630151/s3d.part10.rar

Comentarios Facebook

carleetonet no está en línea  

compartir
                 
remocion sep Gold sep Silver sep Donar

marcaNo Calculado   #1.5
SponSor

avatar
 
Me Gusta denunciando
Estadisticas
Mensajes: 898.814
Me Gusta Recibidos: 75415
Me Gustado Dados: 62988
Fecha de Ingreso: 02 jun 2006
Reputacion
Puntos: 1574370
Ayudante de Santa está en el buen caminoAyudante de Santa está en el buen caminoAyudante de Santa está en el buen caminoAyudante de Santa está en el buen caminoAyudante de Santa está en el buen caminoAyudante de Santa está en el buen caminoAyudante de Santa está en el buen caminoAyudante de Santa está en el buen caminoAyudante de Santa está en el buen caminoAyudante de Santa está en el buen caminoAyudante de Santa está en el buen caminoAyudante de Santa está en el buen caminoAyudante de Santa está en el buen caminoAyudante de Santa está en el buen camino
emoticon Re: Saw 7 3D (2011)(BDrip 1080p x264 mkv)(es-AC3 5.1/en-DTS)(Terror/gore)

 
 
   
   
_______________________________________________
Publicidad :)
conectado
Antiguo 03-07-2011 , 12:37:26   #2
Denunciante Gomozo
 
Avatar de chris.8000
Me Gusta
Estadisticas
Mensajes: 1.470
Me Gusta Recibidos: 0
Me Gustas Dados: 0
Ingreso: 28 dic 2010

Temas Nominados a TDM
Temas Nominados Temas Nominados 0
Nominated Temas Ganadores: 0
Reputacion Poder de Credibilidad: 12
Puntos: 8099
chris.8000 es un pozo de sabiduriachris.8000 es un pozo de sabiduriachris.8000 es un pozo de sabiduriachris.8000 es un pozo de sabiduriachris.8000 es un pozo de sabiduriachris.8000 es un pozo de sabiduriachris.8000 es un pozo de sabiduriachris.8000 es un pozo de sabiduriachris.8000 es un pozo de sabiduriachris.8000 es un pozo de sabiduriachris.8000 es un pozo de sabiduria
  
Predeterminado Respuesta: Saw 7 3D (2011)(BDrip 1080p x264 mkv)(es-AC3 5.1/en-DTS)(Terror/gore)

buen aporte

chris.8000 no está en línea  
 

Etiquetas
1080p, 2011bdrip, 51 or endtsterror or gore, mkvesac3, x264

Herramientas



La franja horaria es GMT -5. Ahora son las 23:16:08.
Desarrollado por: vBulletin® Versión 3.8.9
Derechos de Autor ©2000 - 2018, Jelsoft Enterprises Ltd.
DeNunCianDo.CoM ©
DeNunCianDo


Page generated in 0,08165 seconds with 15 queries

SEO by vBSEO