DeNunCianDo  
Denunciando   Video Porno luly bossa Completo   Video Porno Sandra Muños Completo   Alejandra Omaña Primer video porno   Lina Arroyave, DESNUDA, la mama del hijo de Kevin Roldan   

Retroceder   DeNunCianDo » ..:::: CoMuNiDaD DeNunCianDo.CoM ::::.. » Discusiones Generales » Peliculas, Cine y Teatro » Descargas

Descargas Zona dedicada a todo lo relacionado con descargas de películas en general. Acá podrás encontrar descargas directas y demás.

Hola Invitado!
Tómate un minuto para registrarte, es 100% GRATIS y no verás ninguna publicidad! ¿Qué estás esperando?
tapatalk Para Ingresa a Denunciando.com por medio de TapaTalk Clic ACA
Registrarse Ahora
Descargas »

Mars needs Moms 2011 [R5][DVDRip][XVID][AC3][HQ][Hive-CM8]

Participa en el tema Mars needs Moms 2011 [R5][DVDRip][XVID][AC3][HQ][Hive-CM8] en el foro Descargas.
....



Temas Similares
Tema Autor Foro Respuestas Último mensaje
Thor 2011 [TS][XVID][AC3][HQ][Hive-CM8][Ingles][Multi] panchi2 Descargas 0 08-05-2011 08:17:01
Die 2010 DVDRip XviD AC3 HQ Hive-CM8 [Thriller] 2 links chalo_G Descargas 1 18-01-2011 19:10:18
Tomorrow When The War Began (2010) DVDRip.XviD.AC3.HQ.Hive-CM8 b00l Descargas 0 26-12-2010 16:15:05
Gun (2010) DVDRip.XviD.AC3.HQ.Hive-CM8 b00l Descargas 0 23-12-2010 17:54:55
Gun (2010) DVDRip.XVID.AC3.HQ.Hive-CM8 b00l Descargas 0 13-12-2010 09:27:37

 
Antiguo , 07:06:17   #1

Me Gusta
Estadisticas
Mensajes: 421
Me Gusta Recibidos: 18
Me Gustas Dados: 0
Ingreso: 31 oct 2010

Temas Nominados a TDM
Temas Nominados Temas Nominados 0
Nominated Temas Ganadores: 0
Reputacion Poder de Credibilidad: 8
Puntos: 513
panchi2 el Usuariox tiene un aura espectacularpanchi2 el Usuariox tiene un aura espectacularpanchi2 el Usuariox tiene un aura espectacularpanchi2 el Usuariox tiene un aura espectacularpanchi2 el Usuariox tiene un aura espectacularpanchi2 el Usuariox tiene un aura espectacular
  
Predeterminado Mars needs Moms 2011 [R5][DVDRip][XVID][AC3][HQ][Hive-CM8] Calificación: de 5,00






TiTULO ORIGINAL: Mars Needs Moms!
2011
DURACIoN: 88 min.
PAiS: Estados Unidos
DIRECTOR: Simon Wells
GUIoN: Libro: Berkeley Breathed
MuSICA: Hans Zimmer
FOTOGRAFiA: Animation
REPARTO: Animation
PRODUCTORA: Walt Disney Productions
GeNERO: Animación. Fantástico. Ciencia ficción




El film trata sobre un niño, fanático del legendario grupo musical Kiss, que es muy desobediente con su madre, pero una noche, un grupo de marcianos la secuestran y se la llevan a Marte. El niño tendrá que embarcarse en la aventura en su búsqueda para rescatarla. Una vez que llegue al "planeta Rojo" ocurrirá graves consecuencias. Inicialmente estaba prevista para que la dirigiese Robert Zemekins, aunque finalmente será Simon Wells quien la lleve a cabo, utilizando la misma técnica de captura de movimientos de films como "Polar Express" o "Beowulf".




Video: 720x304 @bitrate 2400 2pass
Audio: English AC3 5.1 @384
Subs: yes english in srt /subs



General

Complete name : Mars.needs.Moms.2011.R5.DVDRip.XVID.AC3.HQ.Hive-CM8.avi
Format : AVI
Format/Info : Audio Video Interleave
File size : 1.65 GiB
Duration : 1h 24mn
Overall bit rate : 2 793 Kbps
Writing application : Nandub v1.0rc2
Writing library : Nandub build 1853/release


Video
ID : 0
Format : MPEG-4 Visual
Format profile : Advanced Simple@L5
Format settings, BVOP : 2
Format settings, QPel : Yes
Format settings, GMC : No warppoints
Format settings, Matrix : Default (H.263)
Muxing mode : Packed bitstream
Codec ID : XVID
Codec ID/Hint : XviD
Duration : 1h 24mn
Bit rate : 2 400 Kbps
Width : 720 pixels
Height : 304 pixels
Display aspect ratio : 2.35:1
Frame rate : 25.000 fps
Color space : YUV
Chroma subsampling : 4:2:0
Bit depth : 8 bits
Scan type : Progressive
Compression mode : Lossy
Bits/(Pixel*Frame) : 0.439
Stream size : 1.42 GiB (86%)
Writing library : XviD 1.2.1 (UTC 2008-12-04)

Audio
ID : 1
Format : AC-3
Format/Info : Audio Coding 3
Mode extension : CM (complete main)
Codec ID : 2000
Duration : 1h 24mn
Bit rate mode : Constant
Bit rate : 384 Kbps
Channel(s) : 6 channels
Channel positions : Front: L C R, Side: L R, LFE
Sampling rate : 48.0 KHz
Bit depth : 16 bits
Compression mode : Lossy
Stream size : 232 MiB (14%)
Alignment : Split accross interleaves
Interleave, duration : 40 ms (1.00 video frame)
Interleave, preload duration : 500 ms[/B]



[youtube]VZ-9xwf2U8w[/youtube]













[code]http://bitshare.com/files/e4hehiiw/Mars.needs.Moms.2011.R5.DVDRip.XVID.panchi1..avi.part1.rar.h tml
http://bitshare.com/files/hftpqefx/Mars.needs.Moms.2011.R5.DVDRip.XVID.panchi1..avi.part2.rar.h tml[/code]





[code]http://www.wupload.com/file/15361638
http://www.wupload.com/file/15362926[/code]






Comentarios Facebook

panchi2 no está en línea  

compartir
                 
remocion sep Gold sep Silver sep Donar

marcaNo Calculado   #1.5
SponSor

avatar
 
Me Gusta denunciando
Estadisticas
Mensajes: 898.814
Me Gusta Recibidos: 75415
Me Gustado Dados: 62988
Fecha de Ingreso: 02 jun 2006
Reputacion
Puntos: 1574370
Ayudante de Santa está en el buen caminoAyudante de Santa está en el buen caminoAyudante de Santa está en el buen caminoAyudante de Santa está en el buen caminoAyudante de Santa está en el buen caminoAyudante de Santa está en el buen caminoAyudante de Santa está en el buen caminoAyudante de Santa está en el buen caminoAyudante de Santa está en el buen caminoAyudante de Santa está en el buen caminoAyudante de Santa está en el buen caminoAyudante de Santa está en el buen caminoAyudante de Santa está en el buen caminoAyudante de Santa está en el buen camino
emoticon Re: Mars needs Moms 2011 [R5][DVDRip][XVID][AC3][HQ][Hive-CM8]

 
 
   
   
_______________________________________________
Publicidad :)
conectado
Antiguo 11-06-2011 , 08:23:37   #2
Denunciante Aprendiz
 
Avatar de hebi96
Me Gusta
Estadisticas
Mensajes: 591
Me Gusta Recibidos: 74
Me Gustas Dados: 105
Ingreso: 11 mar 2009

Temas Nominados a TDM
Temas Nominados Temas Nominados 0
Nominated Temas Ganadores: 0
Reputacion Poder de Credibilidad: 10
Puntos: 1332
hebi96 el Usuariox es espléndido/ahebi96 el Usuariox es espléndido/ahebi96 el Usuariox es espléndido/ahebi96 el Usuariox es espléndido/ahebi96 el Usuariox es espléndido/ahebi96 el Usuariox es espléndido/ahebi96 el Usuariox es espléndido/ahebi96 el Usuariox es espléndido/ahebi96 el Usuariox es espléndido/ahebi96 el Usuariox es espléndido/a
  
Predeterminado Respuesta: Mars needs Moms 2011 [R5][DVDRip][XVID][AC3][HQ][Hive-CM8]

se ve buena, gracias por el aporte, descargandoooooooooooooooooo

hebi96 no está en línea  
 

Etiquetas
2011, acción

Herramientas



La franja horaria es GMT -5. Ahora son las 18:49:35.
Desarrollado por: vBulletin® Versión 3.8.9
Derechos de Autor ©2000 - 2018, Jelsoft Enterprises Ltd.
DeNunCianDo.CoM ©
DeNunCianDo


Page generated in 0,06007 seconds with 15 queries

SEO by vBSEO