DeNunCianDo  
Denunciando   Urbantuning   Futbol Es Pasion   Video Porno luly bossa Completo   Video Porno Sandra Muños Completo   Alejandra Omaña Primer video porno   Lina Arroyave, DESNUDA, la mama del hijo de Kevin Roldan   

Retroceder   DeNunCianDo » ..:::: CoMuNiDaD DeNunCianDo.CoM ::::.. » Discusiones Generales » Peliculas, Cine y Teatro » Descargas
Descargas Zona dedicada a todo lo relacionado con descargas de películas en general. Acá podrás encontrar descargas directas y demás.

Hola Invitado!
Tómate un minuto para registrarte, es 100% GRATIS y no verás ninguna publicidad! ¿Qué estás esperando?
tapatalk Para Ingresa a Denunciando.com por medio de TapaTalk Clic ACA
Registrarse Ahora
Descargas »

Dismal (2010) DVDrip.XviD-FooKaS

Participa en el tema Dismal (2010) DVDrip.XviD-FooKaS en el foro Descargas.
Dismal (2010) DVDrip.XviD-FooKaS NFO: [code]General Format: AVI Format/Info: Audio Video Interleave File size: 1.45 GiB Duration: 1h 19mn Overall bit ....



Temas Similares
Tema Autor Foro Respuestas Último mensaje
Die (2010) DVDRip.XviD-WBZ b00l Descargas 0 14-01-2011 14:15:58
Love And Other Drugs (2010) TS.XviD-FooKaS b00l Descargas 0 08-01-2011 17:58:26
Somewhere (2010) DVDRip XviD-iLG proshow88 Descargas 0 22-12-2010 09:46:09
I Am (2010) DVDRip XviD-AEN proshow88 Descargas 0 21-12-2010 08:39:13

Respuesta
Antiguo , 18:23:32   #1

Me Gusta
Estadisticas
Mensajes: 193
Me Gusta Recibidos: 1
Me Gustas Dados: 0
Ingreso: 04 dic 2010

Temas Nominados a TDM
Temas Nominados Temas Nominados 0
Nominated Temas Ganadores: 0
Reputacion
Puntos: 12
b00l el Usuariox esta entre el bien y el mal
  
Predeterminado Dismal (2010) DVDrip.XviD-FooKaS Calificación: de 5,00

Dismal (2010) DVDrip.XviD-FooKaS



NFO:
[code]General
Format: AVI
Format/Info: Audio Video Interleave
File size: 1.45 GiB
Duration: 1h 19mn
Overall bit rate: 2 617 Kbps
Writing library: MPlayer

Video
ID: 0
Format: MPEG-4 Visual
Format profile: Simple@L1
Format settings, BVOP: No
Format settings, QPel: No
Format settings, GMC: No warppoints
Format settings, Matrix: Default (H.263)
Codec ID: DX50
Codec ID/Hint: DivX 5
Duration: 1h 19mn
Bit rate: 2 349 Kbps
Width: 704 pixels
Height: 400 pixels
Display aspect ratio: 16:9
Frame rate: 23.976 fps
Color space: YUV
Chroma subsampling: 4:2:0
Bit depth: 8 bits
Scan type: Interlaced
Scan order: Top Field First
Compression mode: Lossy
Bits/(Pixel*Frame): 0.348
Stream size: 1.30 GiB (90%)
Writing library: Lavc52.0.0

Audio
ID: 1
Format: MPEG Audio
Format version: Version 1
Format profile: Layer 3
Mode: Joint stereo
Codec ID: 55
Codec ID/Hint: MP3
Duration: 1h 19mn
Bit rate mode: Constant
Bit rate: 256 Kbps
Channel(s): 2 channels
Sampling rate: 44.1 KHz
Compression mode: Lossy
Stream size: 145 MiB (10%)
Alignment: Aligned on interleaves
Interleave, duration: 26 ms (0.63 video frame)
Interleave, preload duration: 809 ms
Writing library: LAME3.97 [/code]

Screens:


Download:
[code]Hotfile.com:
http://hotfile.com/dl/97030530/7b8c821/dismal-m.part1.rar.html
http://hotfile.com/dl/97031988/81f3935/dismal-m.part2.rar.html
http://hotfile.com/dl/97034141/88a7c99/dismal-m.part3.rar.html
http://hotfile.com/dl/97036044/931070c/dismal-m.part4.rar.html
http://hotfile.com/dl/97036594/3e49df4/dismal-m.part5.rar.html

Filesonic.com:
http://www.filesonic.com/file/58454434/dismal-m.part1.rar
http://www.filesonic.com/file/58457568/dismal-m.part2.rar
http://www.filesonic.com/file/58460266/dismal-m.part3.rar
http://www.filesonic.com/file/58462934/dismal-m.part4.rar
http://www.filesonic.com/file/58463096/dismal-m.part5.rar

Fileserve.com:
http://www.fileserve.com/file/VbJ7MFT/dismal-m.part1.rar
http://www.fileserve.com/file/3xWPCCB/dismal-m.part2.rar
http://www.fileserve.com/file/yAdKkvK/dismal-m.part3.rar
http://www.fileserve.com/file/2WNn5sv/dismal-m.part4.rar
http://www.fileserve.com/file/HJkJZeJ/dismal-m.part5.rar

no pass[/code]

800MB parts:
[code]Filesonic.com:
http://www.filesonic.com/file/58469562/dismal10-m.part1.rar
http://www.filesonic.com/file/58474026/dismal10-m.part2.rar
http://www.filesonic.com/file/58474368/dismal10-m.part3.rar

Fileserve.com:
http://www.fileserve.com/file/W2pRvdH/dismal10-m.part1.rar
http://www.fileserve.com/file/NqB2uZV/dismal10-m.part2.rar
http://www.fileserve.com/file/Q5KYeuD/dismal10-m.part3.rar

no pass[/code]

Comentarios Facebook

b00l no está en línea   Responder Citando

compartir
                 
remocion sep Gold sep Silver sep Donar

marcaNo Calculado   #1.5
SponSor

avatar
 
Me Gusta denunciando
Estadisticas
Mensajes: 898.814
Me Gusta Recibidos: 75415
Me Gustado Dados: 62988
Fecha de Ingreso: 02 jun 2006
Reputacion
Puntos: 1574370
Ayudante de Santa está en el buen caminoAyudante de Santa está en el buen caminoAyudante de Santa está en el buen caminoAyudante de Santa está en el buen caminoAyudante de Santa está en el buen caminoAyudante de Santa está en el buen caminoAyudante de Santa está en el buen caminoAyudante de Santa está en el buen caminoAyudante de Santa está en el buen caminoAyudante de Santa está en el buen caminoAyudante de Santa está en el buen caminoAyudante de Santa está en el buen caminoAyudante de Santa está en el buen caminoAyudante de Santa está en el buen camino
emoticon Re: Dismal (2010) DVDrip.XviD-FooKaS

 
 
   
   
_______________________________________________
Publicidad :)
conectado
Respuesta

Etiquetas
2010, dismal, dvdripxvidfookas

Herramientas



La franja horaria es GMT -5. Ahora son las 20:17:12.
Desarrollado por: vBulletin® Versión 3.8.9
Derechos de Autor ©2000 - 2017, Jelsoft Enterprises Ltd.
DeNunCianDo.CoM ©
DeNunCianDo


Page generated in 0,04601 seconds with 13 queries

SEO by vBSEO