DeNunCianDo  
Denunciando   Video Porno luly bossa Completo   Video Porno Sandra Muños Completo   Alejandra Omaña Primer video porno   Lina Arroyave, DESNUDA, la mama del hijo de Kevin Roldan   

Retroceder   DeNunCianDo » ..:::: CoMuNiDaD DeNunCianDo.CoM ::::.. » Discusiones Generales » Peliculas, Cine y Teatro » Descargas

Descargas Zona dedicada a todo lo relacionado con descargas de películas en general. Acá podrás encontrar descargas directas y demás.

Hola Invitado!
Tómate un minuto para registrarte, es 100% GRATIS y no verás ninguna publicidad! ¿Qué estás esperando?
tapatalk Para Ingresa a Denunciando.com por medio de TapaTalk Clic ACA
Registrarse Ahora
Descargas »

Silent Hill Revelation (2012) 3D H-SBS 1080p Ing-Lat

Participa en el tema Silent Hill Revelation (2012) 3D H-SBS 1080p Ing-Lat en el foro Descargas.
TITULO ORIGINAL: Silent Hill: Revelation 3D (Silent Hill 2) ANO: 2012 DURACION: 94 min. PAIS: USA DIRECTOR: Michael J. Bassett ....



Temas Similares
Tema Autor Foro Respuestas Último mensaje
Silent Hill 2 Revelation [2012] BRRip 720p Dual Latino/Ingles 5.1 [2.88 GB] akuma1983 Descargas 0 01-02-2013 12:29:05
Silent Hill Revelation DVDRip 2012 Español Latino akuma1983 Descargas 0 27-01-2013 19:48:36
Silent Hill Revelation DVDRip 2012 Ingles 5.1 Sub Español akuma1983 Descargas 1 26-01-2013 21:59:48
Silent Hill,Revelation 3D,WEBRip 2012,Sub Español,mkv 1.20 GB akuma1983 Descargas 0 21-01-2013 17:09:06
Silent Hill Revelation 3D TS 2012 [V.O Ingles] akuma1983 Descargas 0 12-11-2012 01:58:20

 
Antiguo , 11:54:29   #1

Me Gusta
Estadisticas
Mensajes: 39
Me Gusta Recibidos: 0
Me Gustas Dados: 0
Ingreso: 04 may 2017

Temas Nominados a TDM
Temas Nominados Temas Nominados 0
Nominated Temas Ganadores: 0
Reputacion Poder de Credibilidad: 0
Puntos: 10
yiyonto el Usuariox esta entre el bien y el mal
  
Predeterminado Silent Hill Revelation (2012) 3D H-SBS 1080p Ing-Lat Calificación: de 5,00




TITULO ORIGINAL: Silent Hill: Revelation 3D (Silent Hill 2)
ANO: 2012
DURACION: 94 min.
PAIS: USA
DIRECTOR: Michael J. Bassett
GUION: Michael J. Bassett
REPARTO: Adelaide Clemens, Kit Harington, Sean Bean, Carrie-Anne Moss, Malcolm McDowell, Radha Mitchell, Deborah Kara Unger, Martin Donovan, Heather Marks, James Collins
PRODUCTORA: Coproduccion Francia-EEUU; Davis-Films / Sony Pictures / Sony / KONAMI
GENERO: Terror. Fantastico | Sobrenatural. Monstruos. Videojuego. 3-D
SINOPSIS: Cuando cumple 18 anos, Heather Mason decide buscar a su padre. Las pesadillas que la acechan la conducen a la ciudad de la niebla eterna, donde acabara' descubriendo el misterio de Silent Hill. Secuela de la pelicula Silent Hill, basada en una saga de videojuegos homonima.
Trailer


Cita:
General
Format : Matroska
Format version : Version 2
File size : 10.6 GiB
Duration : 1h 34mn
Overall bit rate : 16.1 Mbps
Encoded date : UTC 2013-02-13 23:06:51
Writing application : mkvmerge v5.7.0 ('The Whirlwind') built on Jul 8 2012 20:08:51
Writing library : libebml v1.2.3 + libmatroska v1.3.0
Video
ID : 1
Format : AVC
Format/Info : Advanced Video Codec
Format profile : [email protected]
Format settings, CABAC : Yes
Format settings, ReFrames : 2 frames
Codec ID : V_MPEG4/ISO/AVC
Duration : 1h 34mn
Bit rate : 13.1 Mbps
Width : 1 920 pixels
Height : 1 080 pixels
Display aspect ratio : 16:9
Frame rate mode : Constant
Frame rate : 23.976 fps
Color space : YUV
Chroma subsampling : 4:2:0
Bit depth : 8 bits
Scan type : Progressive
Bits/(Pixel*Frame) : 0.264
Stream size : 8.70 GiB (82%)
Writing library : x264 core
Language : English
Default : Yes
Forced : No
Color primaries : BT.709
Transfer characteristics : BT.709
Matrix coefficients : BT.709
Audio #1
ID : 2
Format : AC-3
Format/Info : Audio Coding 3
Mode extension : CM (complete main)
Format settings, Endianness : Big
Codec ID : A_AC3
Duration : 1h 34mn
Bit rate mode : Constant
Bit rate : 448 Kbps
Channel(s) : 6 channels
Channel positions : Front: L C R, Side: L R, LFE
Sampling rate : 48.0 KHz
Bit depth : 16 bits
Compression mode : Lossy
Delay relative to video : 24ms
Stream size : 303 MiB (3%)
Title : AC3 5.1
Language : Spanish
Default : Yes
Forced : No
Audio #2
ID : 3
Format : AC-3
Format/Info : Audio Coding 3
Mode extension : CM (complete main)
Format settings, Endianness : Big
Codec ID : A_AC3
Duration : 1h 34mn
Bit rate mode : Constant
Bit rate : 640 Kbps
Channel(s) : 6 channels
Channel positions : Front: L C R, Side: L R, LFE
Sampling rate : 48.0 KHz
Bit depth : 16 bits
Compression mode : Lossy
Stream size : 434 MiB (4%)
Title : AC3 5.1
Language : English
Default : No
Forced : No
Audio #3
ID : 4
Format : DTS
Format/Info : Digital Theater Systems
Mode : 16
Format settings, Endianness : Big
Codec ID : A_DTS
Duration : 1h 34mn
Bit rate mode : Constant
Bit rate : 1 509 Kbps
Channel(s) : 6 channels
Channel positions : Front: L C R, Side: L R, LFE
Sampling rate : 48.0 KHz
Bit depth : 24 bits
Compression mode : Lossy
Stream size : 1 022 MiB (9%)
Title : DTS 5.1
Language : English
Default : No
Forced : No
Text #1
ID : 5
Format : UTF-8
Codec ID : S_TEXT/UTF8
Codec ID/Info : UTF-8 Plain Text
Language : Spanish
Default : No
Forced : No
Text #2
ID : 6
Format : UTF-8
Codec ID : S_TEXT/UTF8
Codec ID/Info : UTF-8 Plain Text
Language : English
Default : No
Forced : No







Cita:
https://filejoker.net/npk4kg8oay81/sihirv3d.part01.rar
https://filejoker.net/fxbdpmwy50so/sihirv3d.part02.rar
https://filejoker.net/ymuqkbzx8d7l/sihirv3d.part03.rar
https://filejoker.net/mzan7ahnxi6x/sihirv3d.part04.rar
https://filejoker.net/vhhz0a36kk8a/sihirv3d.part05.rar
https://filejoker.net/lsruzu44opi4/sihirv3d.part06.rar
https://filejoker.net/zucktbngpifb/sihirv3d.part07.rar
https://filejoker.net/96tdpkgxvmto/sihirv3d.part08.rar
https://filejoker.net/vnu6egwb5prs/sihirv3d.part09.rar
https://filejoker.net/9jaei325bpfe/sihirv3d.part10.rar
https://filejoker.net/mk2nwgckvm36/sihirv3d.part11.rar
https://filejoker.net/ti35ujabn4ce/sihirv3d.part12.rar
https://filejoker.net/12ks2rwg67ow/sihirv3d.part13.rar
https://filejoker.net/0firuf78r4y9/sihirv3d.part14.rar
https://filejoker.net/xoeuaygbp75y/sihirv3d.part15.rar
https://filejoker.net/3ubzmgnxk4h1/sihirv3d.part16.rar
https://filejoker.net/4ybdrc8q0cb9/sihirv3d.part17.rar
https://filejoker.net/93sw993vg5m7/sihirv3d.part18.rar
https://filejoker.net/y56v3n3cwqzk/sihirv3d.part19.rar
https://filejoker.net/1kgfazsgtttt/sihirv3d.part20.rar
https://filejoker.net/sd6qcfqkreqr/sihirv3d.part21.rar
https://filejoker.net/yjkvdivop2yw/sihirv3d.part22.rar
https://filejoker.net/j062fdn0v5br/sihirv3d.part23.rar
https://filejoker.net/eepnwiip2bnp/sihirv3d.part24.rar
https://filejoker.net/px8wkq2lh81j/sihirv3d.part25.rar
https://filejoker.net/h3pbg5snlw30/sihirv3d.part26.rar
https://filejoker.net/2qozstav3imv/sihirv3d.part27.rar
https://filejoker.net/wsydx16k8f6b/sihirv3d.part28.rar
https://filejoker.net/sak6fqkzqlox/sihirv3d.part29.rar
https://filejoker.net/sy37kkm03lfw/sihirv3d.part30.rar
https://filejoker.net/2yi8h7fxd2zv/sihirv3d.part31.rar
https://filejoker.net/78s5rk87p38p/sihirv3d.part32.rar
https://filejoker.net/rgnelevpfusi/sihirv3d.part33.rar
https://filejoker.net/kmyqitpaksi5/sihirv3d.part34.rar
https://filejoker.net/cgxfgq7u21ia/sihirv3d.part35.rar
https://filejoker.net/13hx8q3jk2w0/sihirv3d.part36.rar
https://filejoker.net/xlbib59yziek/sihirv3d.part37.rar
https://filejoker.net/gqew3d1ks2p3/sihirv3d.part38.rar
https://filejoker.net/x00117jv5bph/sihirv3d.part39.rar
https://filejoker.net/1er53yn5mgee/sihirv3d.part40.rar
https://filejoker.net/1xe5lbkuk7i4/sihirv3d.part41.rar
https://filejoker.net/uyfigk3buo8g/sihirv3d.part42.rar
https://filejoker.net/xfjz0cws6hvc/sihirv3d.part43.rar
https://filejoker.net/ny6w693iiv99/sihirv3d.part44.rar

Comentarios Facebook

yiyonto no está en línea  

compartir
                 
remocion sep Gold sep Silver sep Donar

 

Etiquetas
1080p, 2012, descargar, hill, hsbs, inglat, revelation, silent, silent hill

Herramientas



La franja horaria es GMT -5. Ahora son las 20:35:22.
Desarrollado por: vBulletin® Versión 3.8.9
Derechos de Autor ©2000 - 2019, Jelsoft Enterprises Ltd.
DeNunCianDo.CoM ©
DeNunCianDo


Page generated in 0,10073 seconds with 14 queries

SEO by vBSEO