DeNunCianDo  
Denunciando   Video Porno luly bossa Completo   Video Porno Sandra Muños Completo   Alejandra Omaña Primer video porno   Lina Arroyave, DESNUDA, la mama del hijo de Kevin Roldan   

Retroceder   DeNunCianDo » ..:::: CoMuNiDaD DeNunCianDo.CoM ::::.. » Discusiones Generales » Deportes

Deportes Zona dedicada a la actualidad deportiva de nuestro país y del resto del mundo. Acá podrás estar al tanto de los resultados de las ligas, eventos deportivos y las copas de fútbol. Espacio lleno noticias, fotos, videos, debate y opinión.

Hola Invitado!
Tómate un minuto para registrarte, es 100% GRATIS y no verás ninguna publicidad! ¿Qué estás esperando?
tapatalk Para Ingresa a Denunciando.com por medio de TapaTalk Clic ACA
Registrarse Ahora
Deportes »

UFC 236 Main Card - Holloway VS. Poirier 2 (2019)[HDTV 720p][Español][VS]

Participa en el tema UFC 236 Main Card - Holloway VS. Poirier 2 (2019)[HDTV 720p][Español][VS] en el foro Deportes.
....



Temas Similares
Tema Autor Foro Respuestas Último mensaje
WTCR Copa Mundial de Turismos (2019)[HDTV 720p][Español]1/10][VS] parrixv1 Deportes 0 17-04-2019 03:29:53
FIA RallyCross Championship (2019)[HDTV 720p][Español][1/11][VS] parrixv1 Deportes 0 16-04-2019 23:51:04
IndyCar Series (2019)[HDTV 720p][Español/Ing][3/17][VS] parrixv1 Deportes 1 16-04-2019 21:17:59
IMSA WeatherTech SportsCar Championship (2019)[HDTV 720p][Español][2/12][VS] parrixv1 Deportes 1 16-04-2019 13:39:14
UFC FN - Barboza vs Gaethje - Main Card (2019)[HDTV 720p][Español][VS] parrixv1 Deportes 0 12-04-2019 01:57:11

Respuesta
Antiguo , 04:33:48   #1
Ninja UFC 236 Main Card - Holloway VS. Poirier 2 (2019)[HDTV 720p][Español][VS] Calificación: 5,00 de 5,00










UFC Ultimate Fighting Championship
Deporte: artes marciales mixtas
Propietario: William Morris Endeavor
Fundación: noviembre de 1993
Tipo: Privada
Fundadores: Rorion Gracie, John Milius, Art Davie, Campbell McLaren, Bob Meyrowitz, David Isaacs
Locutor: Bruce Buffer





Calidad: HDTV 720p
Formato: MKV
Duración: 80 min.
Resolución: 1280x720p
Video: AVC x264
Fuente: Fox Sports 2
Audio: Español AAC 2.0 48000 Hz
Tamaño: 3 GB
Subtítulos: No
By: Parrix





Descomprimir con winrar, 7zip o programa similar



MediaInfo:

[CODE]

General
Complete name : UFC.236.Main.Card.Holloway.VS.Poirier.2.mkv
Format : MPEG-4
Format profile : Base Media / Version 2
Codec ID : mp42 (mp42)
File size : 3.01 GiB
Duration : 3 h 21 min
Overall bit rate mode : Variable
Overall bit rate : 2 134 kb/s
Codirector : codirector
Production studio : studio
ContentType : Unknown Type
Encoded date : UTC 2019-04-14 10:25:07
Tagged date : UTC 2019-04-14 10:25:07
FileExtension_Invalid : mov mp4 m4v m4a m4b m4p m4r 3ga 3gpa 3gpp 3gp 3gpp2 3g2 k3g jpm jpx mqv ismv isma ismt f4a f4b f4v

Video
ID : 1
Format : AVC
Format/Info : Advanced Video Codec
Format profile : [email protected]
Format settings : CABAC / 2 Ref Frames
Format settings, CABAC : Yes
Format settings, ReFrames : 2 frames
Format settings, GOP : M=3, N=24
Muxing mode : Container [email protected]
Codec ID : avc1
Codec ID/Info : Advanced Video Coding
Duration : 3 h 21 min
Bit rate mode : Variable
Bit rate : 1 999 kb/s
Maximum bit rate : 3 000 kb/s
Width : 1 280 pixels
Height : 720 pixels
Display aspect ratio : 16:9
Frame rate mode : Constant
Frame rate : 30.000 FPS
Color space : YUV
Chroma subsampling : 4:2:0
Bit depth : 8 bits
Scan type : Progressive
Bits/(Pixel*Frame) : 0.072
Stream size : 2.82 GiB (94%)
Language : English
Encoded date : UTC 1953-04-13 10:25:07
Tagged date : UTC 1953-04-13 10:25:07
Codec configuration box : avcC

Audio
ID : 2
Format : AAC LC
Format/Info : Advanced Audio Codec Low Complexity
Codec ID : mp4a-40-2
Duration : 3 h 21 min
Bit rate mode : Constant
Bit rate : 128 kb/s
Channel(s) : 2 channels
Channel layout : L R
Sampling rate : 44.1 kHz
Frame rate : 43.066 FPS (1024 SPF)
Compression mode : Lossy
Stream size : 185 MiB (6%)
Title : Stereo
Language : English
Default : Yes
Alternate group : 1
Encoded date : UTC 1953-04-13 10:25:07
Tagged date : UTC 1953-04-13 10:25:07

[/CODE]





La Ultimate Fighting Championship es la mayor empresa de artes marciales mixtas en el mundo, ? que alberga la mayor parte de los mejores peleadores del ranking en el deporte?? y produce eventos por todo el mundo.?









Se recomienda descargar con JDownloader v2, Mipony o programa similar



Descarga todo de un servidor FREE + 1 parte NO FREE











[HIDE][CODE]

https://safelinking.net/w2Es6iZ

[/CODE][/HIDE]


Visita mi perfil para ver todos mis aportes





Comentarios Facebook

parrixv1 no está en línea   Responder Citando

compartir
                 
remocion sep Gold sep Silver sep Donar

Respuesta

Etiquetas
2019hdtv, 236, 720pespañolvs, card, holloway, main, poirier, ufc

Herramientas



La franja horaria es GMT -5. Ahora son las 11:45:39.
Desarrollado por: vBulletin® Versión 3.8.9
Derechos de Autor ©2000 - 2019, Jelsoft Enterprises Ltd.
DeNunCianDo.CoM ©
DeNunCianDo


Page generated in 0,03306 seconds with 13 queries

SEO by vBSEO