PDA

Ver la Versión Completa Con Imagenes : La Era De Los Dragones [1LINK][2011][BRRip XviD][Español Latino][CienciaFiccion/Accion]


magicbibi
06-12-2011, 04:22:47
http://s3.postimage.org/gd5v29cx/Encabezado.gif

Edad de los Dragones

http://i.lulzimg.com/ceaca67a2b.jpg

http://s3.postimage.org/gecv1a75/Informacion.gif

TÍTULO ORIGINAL Age of the Dragons
AÑO 2011
DURACIÓN 91 min.
DIRECTOR Ryan Little
GUIÓN McKay Daines (Historia: Anne K. Black, Gil Aglaure)
MÚSICA J Bateman
REPARTO Danny Glover, Vinnie Jones, Corey Sevier, Sofia Pernas, Larry Bagby, Kepa Kruse,
David Morgan
PRODUCTORA KOAN / Cinedome / Dragon Quest Productions
WEB OFICIAL http://www.ageofthedragonsmovie.com/
GÉNERO Fantástico. Acción | Fantasía medieval


http://s9.postimage.org/f9vymnqi5/sinopsis.gif
Libre adaptación de la novela Moby Dick, de Herman Melville. La acción se desarrolla en un ambiente medieval, en el que el capitán Ahab (Glover) debe dar caza al Gran Dragón Blanco.


http://s9.postimage.org/8uscc8uel/Ficha.gifGeneral
Complete name : /Age.Of.The.Dragons.BrRip.Xvid.Latino.MagicBibi.avi
Format : AVI
Format/Info : Audio Video Interleave
File size : 700 MiB
Duration : 1h 34mn
Overall bit rate : 1 034 Kbps
Writing application : VirtualDubMod 1.5.4.1 (build 2178/release)
Writing library : VirtualDub build 30586/release

Video
ID : 0
Format : MPEG-4 Visual
Format profile : Advanced Simple@L5
Format settings, BVOP : 1
Format settings, QPel : No
Format settings, GMC : No warppoints
Format settings, Matrix : Custom
Codec ID : XVID
Codec ID/Hint : XviD
Duration : 1h 34mn
Bit rate : 912 Kbps
Width : 640 pixels
Height : 272 pixels
Display aspect ratio : 2.35:1
Frame rate : 23.976 fps
Color space : YUV
Chroma subsampling : 4:2:0
Bit depth : 8 bits
Scan type : Progressive
Compression mode : Lossy
Bits/(Pixel*Frame) : 0.219
Stream size : 617 MiB (88%)
Writing library : XviD 1.2.1 (UTC 2008-12-04)

Audio
ID : 1
Format : MPEG Audio
Format version : Version 1
Format profile : Layer 3
Codec ID : 55
Codec ID/Hint : MP3
Duration : 1h 34mn
Bit rate mode : Constant
Bit rate : 112 Kbps
Channel(s) : 2 channels
Sampling rate : 44.1 KHz
Compression mode : Lossy
Stream size : 75.8 MiB (11%)
Alignment : Split accross interleaves
Interleave, duration : 42 ms (1.00 video frame)
Interleave, preload duration : 500 ms


http://s3.postimage.org/gckd2qxt/Capturas.gif

http://i.lulzimg.com/c1804786e4.jpg



http://s3.postimage.org/gcvxu6e9/Deescargar.gif

http://s3.postimage.org/ge2xt78h/fileservemagicbibi.jpg
http://www.fileserve.com/file/KegEthV
http://s3.postimage.org/ge68vw81/Filejunglemagicbibi.png
http://www.filejungle.com/f/gFVts3
http://s10.postimage.org/w6tl0z51j/filepostmagicbibi.jpg
http://fp.io/7f31c3fd

http://s3.postimage.org/gdatoau9/fianl11.gif
Post Creado con Magic Post Creator (http://magicpostcreator.*************/)