PDA

Ver la Versión Completa : Acero puro (2011)[TS-Screener HQ][Castellano-MIC][Acción]


magicbibi
03-12-2011, 13:01:44
http://s3.postimage.org/gd5v29cx/Encabezado.gif

Acero Puro

http://i28.lulzimg.com/0b12ab9b6c.jpg

http://s3.postimage.org/gecv1a75/Informacion.gif

TÍTULO ORIGINAL Real Steel
AÑO 2011
DURACIÓN 126 min.
DIRECTOR Shawn Levy
GUIÓN Leslie Bohem, John Gatins, Dan Gilroy, Jeremy Leven (Historia corta: Richard Matheson)
MÚSICA Danny Elfman
FOTOGRAFÍA Mauro Fiore
REPARTO Hugh Jackman, Kevin Durand, Dakota Goyo, Anthony Mackie, Evangeline Lilly
PRODUCTORA DreamWorks SKG / ImageMovers / Angry Films
WEB OFICIAL http://steelgetsreal.com
GÉNERO Ciencia ficción. Acción. Drama | Deporte. Boxeo. Robots


http://s9.postimage.org/f9vymnqi5/sinopsis.gif
En un futuro no muy lejano el boxeo es robótico: en los combates ya no se enfrentan seres humanos, sino robots humanoides, sofisticadas máquinas diseñadas para luchar. Charlie Kenton, un antiguo púgil que casi llegó a alcanzar la gloria, está pasando una mala racha como promotor de combates. Un día, encuentra un viejo robot desechado y, al comprobar que es un gran boxeador, decide entrenarlo. http://s9.postimage.org/8uscc8uel/Ficha.gifGeneral
Complete name : /Acero.Puro.TSHQ.Castellano.avi
Format : AVI
Format/Info : Audio Video Interleave
File size : 1.47 GiB
Duration : 1h 55mn
Overall bit rate : 1 820 Kbps
Writing application : VirtualDubMod 1.5.10.3 | www.virtualdub-fr.org || (build 2550/release)
Writing library : VirtualDubMod build 2550/release

Video
ID : 0
Format : MPEG-4 Visual
Format profile : Advanced Simple@L5
Format settings, BVOP : 2
Format settings, QPel : No
Format settings, GMC : No warppoints
Format settings, Matrix : Custom
Codec ID : XVID
Codec ID/Hint : XviD
Duration : 1h 55mn
Bit rate : 1 554 Kbps
Width : 720 pixels
Height : 304 pixels
Display aspect ratio : 2.35:1
Frame rate : 25.000 fps
Color space : YUV
Chroma subsampling : 4:2:0
Bit depth : 8 bits
Scan type : Progressive
Compression mode : Lossy
Bits/(Pixel*Frame) : 0.284
Stream size : 1.26 GiB (85%)
Writing library : XviD 58

Audio
ID : 1
Format : MPEG Audio
Format version : Version 1
Format profile : Layer 3
Codec ID : 55
Codec ID/Hint : MP3
Duration : 1h 55mn
Bit rate mode : Constant
Bit rate : 256 Kbps
Channel(s) : 2 channels
Sampling rate : 44.1 KHz
Compression mode : Lossy
Stream size : 212 MiB (14%)
Alignment : Split accross interleaves
Interleave, duration : 40 ms (1.00 video frame)
Interleave, preload duration : 500 ms


http://s3.postimage.org/gckd2qxt/Capturas.gif

http://i28.lulzimg.com/3ca99f712c.jpg



http://s3.postimage.org/gcvxu6e9/Deescargar.gif

http://s3.postimage.org/ge2xt78h/fileservemagicbibi.jpg
http://www.fileserve.com/file/7uc9J9w
http://www.fileserve.com/file/jZeZQWs
http://s3.postimage.org/ge68vw81/Filejunglemagicbibi.png
http://www.filejungle.com/f/ePyRfC
http://www.filejungle.com/f/HcWaN3
http://s10.postimage.org/w6tl0z51j/filepostmagicbibi.jpg
http://fp.io/82a7b574
http://fp.io/4c7b22b7

http://s3.postimage.org/gdatoau9/fianl11.gif
Post Creado con Magic Post Creator (http://magicpostcreator.*************/)