PDA

Ver la Versión Completa : Mars needs Moms 2011 [R5][DVDRip][XVID][AC3][HQ][Hive-CM8]


panchi2
11-06-2011, 07:06:17
http://img.sceper.eu/images/2661363778.jpg




TiTULO ORIGINAL: Mars Needs Moms!
2011
DURACIoN: 88 min.
PAiS: Estados Unidos
DIRECTOR: Simon Wells
GUIoN: Libro: Berkeley Breathed
MuSICA: Hans Zimmer
FOTOGRAFiA: Animation
REPARTO: Animation
PRODUCTORA: Walt Disney Productions
GeNERO: Animación. Fantástico. Ciencia ficción



El film trata sobre un niño, fanático del legendario grupo musical Kiss, que es muy desobediente con su madre, pero una noche, un grupo de marcianos la secuestran y se la llevan a Marte. El niño tendrá que embarcarse en la aventura en su búsqueda para rescatarla. Una vez que llegue al "planeta Rojo" ocurrirá graves consecuencias. Inicialmente estaba prevista para que la dirigiese Robert Zemekins, aunque finalmente será Simon Wells quien la lleve a cabo, utilizando la misma técnica de captura de movimientos de films como "Polar Express" o "Beowulf".



Video: 720x304 @bitrate 2400 2pass
Audio: English AC3 5.1 @384
Subs: yes english in srt /subs


General

Complete name : Mars.needs.Moms.2011.R5.DVDRip.XVID.AC3.HQ.Hive-CM8.avi
Format : AVI
Format/Info : Audio Video Interleave
File size : 1.65 GiB
Duration : 1h 24mn
Overall bit rate : 2 793 Kbps
Writing application : Nandub v1.0rc2
Writing library : Nandub build 1853/release


Video
ID : 0
Format : MPEG-4 Visual
Format profile : Advanced Simple@L5
Format settings, BVOP : 2
Format settings, QPel : Yes
Format settings, GMC : No warppoints
Format settings, Matrix : Default (H.263)
Muxing mode : Packed bitstream
Codec ID : XVID
Codec ID/Hint : XviD
Duration : 1h 24mn
Bit rate : 2 400 Kbps
Width : 720 pixels
Height : 304 pixels
Display aspect ratio : 2.35:1
Frame rate : 25.000 fps
Color space : YUV
Chroma subsampling : 4:2:0
Bit depth : 8 bits
Scan type : Progressive
Compression mode : Lossy
Bits/(Pixel*Frame) : 0.439
Stream size : 1.42 GiB (86%)
Writing library : XviD 1.2.1 (UTC 2008-12-04)

Audio
ID : 1
Format : AC-3
Format/Info : Audio Coding 3
Mode extension : CM (complete main)
Codec ID : 2000
Duration : 1h 24mn
Bit rate mode : Constant
Bit rate : 384 Kbps
Channel(s) : 6 channels
Channel positions : Front: L C R, Side: L R, LFE
Sampling rate : 48.0 KHz
Bit depth : 16 bits
Compression mode : Lossy
Stream size : 232 MiB (14%)
Alignment : Split accross interleaves
Interleave, duration : 40 ms (1.00 video frame)
Interleave, preload duration : 500 ms[/B]


VZ-9xwf2U8w


http://img.sceper.eu/images/15645328.png

http://img.sceper.eu/images/mama.png





http://img.sceper.eu/images/lbmhk2.png


http://bitshare.com/files/e4hehiiw/Mars.needs.Moms.2011.R5.DVDRip.XVID.panchi1..avi.part1.rar.h tml
http://bitshare.com/files/hftpqefx/Mars.needs.Moms.2011.R5.DVDRip.XVID.panchi1..avi.part2.rar.h tml


http://img.sceper.eu/images/wuploamom.png


http://www.wupload.com/file/15361638
http://www.wupload.com/file/15362926

hebi96
11-06-2011, 08:23:37
se ve buena, gracias por el aporte, descargandoooooooooooooooooo