PDA

Ver la Versión Completa Con Imagenes : Epic (2013) 3D H-SBS 1080p Ing-Lat


yiyonto
04-05-2017, 12:09:25
http://i.imgur.com/NA91EBE.jpg

TITULO ORIGINAL: Epic
ANO: 2013
DURACION: 102 min.
PAIS: USA
DIRECTOR: Chris Wedge
GUION: Daniel Shere, Tom J. Astle, Matt Ember, James V. Hart (Libro: William Joyce)
REPARTO: Animation
PRODUCTORA: 20th Century Fox Animation / Blue Sky Studios
GENERO: Animacion. Aventuras. Fantastico | Insectos. 3-D
http://www.imdb.com/title/tt0848537
Sinopsis: Un grupo de bichos intentan salvar un jardin y enfrentarse a una diabolica arana, buscando para ello la ayuda de los miticos Hombres Hoja.
Trailer
Epic - Trailer Subtitulado HD - YouTube



General
Format : Matroska
Format version : Version 2
File size : 10.9 GiB
Duration : 1h 42mn
Overall bit rate : 15.3 Mbps
Encoded date : UTC 2013-08-09 15:42:52
Writing application : mkvmerge v5.7.0 ('The Whirlwind') built on Jul 8 2012 20:08:51
Writing library : libebml v1.2.3 + libmatroska v1.3.0
Video
ID : 1
Format : AVC
Format/Info : Advanced Video Codec
Format profile : High@L4.1
Format settings, CABAC : Yes
Format settings, ReFrames : 2 frames
Codec ID : V_MPEG4/ISO/AVC
Duration : 1h 42mn
Bit rate : 12.4 Mbps
Width : 1 920 pixels
Height : 1 080 pixels
Display aspect ratio : 16:9
Frame rate mode : Constant
Frame rate : 23.976 fps
Color space : YUV
Chroma subsampling : 4:2:0
Bit depth : 8 bits
Scan type : Progressive
Bits/(Pixel*Frame) : 0.250
Stream size : 8.91 GiB (81%)
Writing library : x264 core
Language : English
Default : Yes
Forced : No
Color primaries : BT.709
Transfer characteristics : BT.709
Matrix coefficients : BT.709
Audio #1
ID : 2
Format : AC-3
Format/Info : Audio Coding 3
Mode extension : CM (complete main)
Format settings, Endianness : Big
Codec ID : A_AC3
Duration : 1h 42mn
Bit rate mode : Constant
Bit rate : 384 Kbps
Channel(s) : 6 channels
Channel positions : Front: L C R, Side: L R, LFE
Sampling rate : 48.0 KHz
Bit depth : 16 bits
Compression mode : Lossy
Delay relative to video : 1s 0ms
Stream size : 282 MiB (3%)
Title : AC3 5.1
Language : Spanish
Default : Yes
Forced : No
Audio #2
ID : 3
Format : AC-3
Format/Info : Audio Coding 3
Mode extension : CM (complete main)
Format settings, Endianness : Big
Codec ID : A_AC3
Duration : 1h 42mn
Bit rate mode : Constant
Bit rate : 640 Kbps
Channel(s) : 6 channels
Channel positions : Front: L C R, Side: L R, LFE
Sampling rate : 48.0 KHz
Bit depth : 16 bits
Compression mode : Lossy
Stream size : 469 MiB (4%)
Title : AC3 5.1
Language : English
Default : No
Forced : No
Audio #3
ID : 4
Format : DTS
Format/Info : Digital Theater Systems
Format profile : ES
Mode : 16
Format settings, Endianness : Big
Codec ID : A_DTS
Duration : 1h 42mn
Bit rate mode : Constant
Bit rate : 1 509 Kbps
Channel(s) : 6 channels
Channel positions : Front: L C R, Side: L R, LFE
Sampling rate : 48.0 KHz
Bit depth : 24 bits
Compression mode : Lossy
Delay relative to video : 11ms
Stream size : 1.08 GiB (10%)
Title : DTS 5.1
Language : English
Default : No
Forced : No
Text
ID : 5
Format : UTF-8
Codec ID : S_TEXT/UTF8
Codec ID/Info : UTF-8 Plain Text
Language : Spanish
Default : No
Forced : No


http://i.imgur.com/Z5qyPLN.png
http://i.imgur.com/YGbAfqF.png
http://i.imgur.com/vulPRZ6.png
http://i.imgur.com/IiQrov1.png

http://www.dmtinc.cl/imagenes/7Vt0k.png


https://filejoker.net/t9vp11tgs1y9/eic3df9vd.part01.rar
https://filejoker.net/h7qv2muh9hpz/eic3df9vd.part02.rar
https://filejoker.net/xhc9chezwyro/eic3df9vd.part03.rar
https://filejoker.net/iw23qmxk3loh/eic3df9vd.part04.rar
https://filejoker.net/5hjyzrcjy2ul/eic3df9vd.part05.rar
https://filejoker.net/wktto1gws9bi/eic3df9vd.part06.rar
https://filejoker.net/z7w2pi008r4q/eic3df9vd.part07.rar
https://filejoker.net/of02hk6v1h3s/eic3df9vd.part08.rar
https://filejoker.net/ayopux8rkxew/eic3df9vd.part09.rar
https://filejoker.net/1i2b5897h4z6/eic3df9vd.part10.rar
https://filejoker.net/tji1js7pfjex/eic3df9vd.part11.rar
https://filejoker.net/tshnwf3s1nwd/eic3df9vd.part12.rar
https://filejoker.net/vju4eemz4g0l/eic3df9vd.part13.rar
https://filejoker.net/e0lux4ovyhe3/eic3df9vd.part14.rar
https://filejoker.net/9hbgd9xpil9q/eic3df9vd.part15.rar
https://filejoker.net/7r6ow5lknxid/eic3df9vd.part16.rar
https://filejoker.net/mkqro1r593nx/eic3df9vd.part17.rar
https://filejoker.net/quhm01wtesii/eic3df9vd.part18.rar
https://filejoker.net/fskr3djykasp/eic3df9vd.part19.rar
https://filejoker.net/peje96d2g3sf/eic3df9vd.part20.rar
https://filejoker.net/zwrjf4h1we41/eic3df9vd.part21.rar
https://filejoker.net/rca2qaq9rchp/eic3df9vd.part22.rar
https://filejoker.net/xccqg6xk83v8/eic3df9vd.part23.rar